Вы используете незарегистрированную версию компонента "Вкладки"!

Поиск

2017 Xavier Richardeau - Boo Boo’s Birthday: Xavier Richardeau Plays Monk {Jazz Family} [24-88,2]

2017 Xavier Richardeau - Boo Boo’s Birthday: Xavier Richardeau Plays Monk {Jazz Family} [24-88,2]
Стили:
Доп. инфо:

Формат записи/Источник записи: [TR24][OF]
Наличие водяных знаков: Нет
Год издания/переиздания диска: 2017
Издатель (лейбл): Jazz Family
Продолжительность: 40:49
Наличие сканов в содержимом раздачи: Только обложка альбома
Источник (релизер): Qobuz

Контейнер: FLAC (*.flac)
Тип рипа: tracks
Разрядность: 24/88,2
Формат: PCM
Количество каналов: 2.0

Лог проверки качества
foobar2000 1.4 / Dynamic Range Meter 1.1.1
log date: 2018-10-16 00:34:27

--------------------------------------------------------------------------------
Analyzed: Xavier Richardeau / Boo Boo's Birthday: Xavier Richardeau plays Monk
--------------------------------------------------------------------------------

DR         Peak         RMS     Duration Track
--------------------------------------------------------------------------------
DR10      -0.18 dB   -12.43 dB      3:07 01-Played Twice
DR9       -0.18 dB   -11.29 dB      3:54 02-Bye Ya
DR8       -0.18 dB   -10.95 dB      3:28 03-Well You Needn't
DR11      -2.71 dB   -16.77 dB      0:29 04-Round Midnight Interlude
DR9       -0.18 dB   -11.81 dB      4:08 05-Round About Midnight
DR10      -0.18 dB   -12.11 dB      2:33 06-Let's Cool One
DR10      -0.18 dB   -12.09 dB      4:17 07-Boo Boo's Birthday
DR10      -0.18 dB   -12.22 dB      4:19 08-Ruby My Dear
DR9       -0.18 dB   -11.13 dB      2:35 09-Evidence - Just You, Just Me
DR12      -0.18 dB   -13.68 dB      4:44 10-Ask Me Now
DR11      -0.18 dB   -12.60 dB      5:00 11-Trinkle Tinkle
DR10      -0.18 dB   -11.99 dB      2:16 12-Crepuscule with Nellie
--------------------------------------------------------------------------------

Number of tracks:  12
Official DR value: DR10

Samplerate:        88200 Hz
Channels:          2
Bits per sample:   24
Bitrate:           2475 kbps
Codec:             FLAC
================================================================================
Any questions - support@pro-jazz.com. Есть вопросы - support@pro-jazz.com
14:26
262
Нет комментариев. Ваш будет первым!