Поиск

2020 Gregory Privat Trio - Soley {Buddham Jazz} [24-88,2]

2020 Gregory Privat Trio - Soley {Buddham Jazz} [24-88,2]

This album is available on our DC++ hub: dc.pro-jazz.com
Этот альбом доступен на нашем DC++ хабе: dc.pro-jazz.com

Треклист:

01. Intro (1:42)
02. Las (5:42)
03. Dna (6:19)
04. Fredo (3:40)
05. Prelude (1:01)
06. Le Pardon (5:58)
07. Soley (3:58)
08. Outro (2:18)
09. Interlude (2:05)
10. Sergueï (5:16)
11. Seducing the Rain (6:51)
12. Exode (6:50)
13. Manmay (4:24)
14. Transfiguration (6:12)
15. Waltz for Mp (6:01)

Состав:
  • Grégory Privat / piano, voice, Nord Stage 2
  • Chris Jennings / double bass
  • Tilo Bertholo / drums, SPD-5
Доп. инфо:

Формат записи/Источник записи: [TR24][OF]
Наличие водяных знаков: Нет
Год издания/переиздания диска: 2020
Издатель (лейбл): Buddham Jazz
Продолжительность: 01:08:17
Наличие сканов в содержимом раздачи: Буклет PDF
Источник (релизер): qobuz

Контейнер: FLAC (*.flac)
Тип рипа: tracks
Разрядность: 24/88,2
Формат: PCM
Количество каналов: 2.0
Доп. информация: https://www.gregoryprivat.com/

Лог проверки качества
foobar2000 1.1.15 / Dynamic Range Meter 1.1.1
log date: 2020-02-03 12:52:18

--------------------------------------------------------------------------------
Analyzed: Grégory Privat, Chris Jennings, Tilo Bertholo / Soley
--------------------------------------------------------------------------------

DR         Peak         RMS     Duration Track
--------------------------------------------------------------------------------
DR11      -0.27 dB   -15.65 dB      1:42 01-Intro
DR8       -0.16 dB   -11.37 dB      5:42 02-Las
DR7       -0.09 dB   -11.48 dB      6:19 03-Dna
DR7       -0.17 dB   -10.63 dB      3:40 04-Fredo
DR11      -0.28 dB   -16.16 dB      1:01 05-Prelude
DR8       -0.13 dB    -9.84 dB      5:58 06-Le Pardon
DR8       -0.13 dB   -10.24 dB      3:58 07-Soley
DR7       -0.08 dB   -11.45 dB      2:18 08-Outro
DR10      -0.12 dB   -12.69 dB      2:05 09-Interlude
DR9       -0.05 dB   -11.44 dB      5:16 10-Sergueï
DR10      -0.22 dB   -13.83 dB      6:51 11-Seducing the Rain
DR8       -0.13 dB   -11.06 dB      6:50 12-Exode
DR8       -0.15 dB   -10.64 dB      4:24 13-Manmay
DR8       -0.09 dB   -10.05 dB      6:12 14-Transfiguration
DR10      -0.20 dB   -13.60 dB      6:01 15-Waltz for Mp
--------------------------------------------------------------------------------

Number of tracks:  15
Official DR value: DR9

Samplerate:        88200 Hz
Channels:          2
Bits per sample:   24
Bitrate:           2481 kbps
Codec:             FLAC
================================================================================
10:00
803
Нет комментариев. Ваш будет первым!