Поиск

1978 Keith Jarrett - Sun Bear Concerts (2021) {ECM} [24-96]

1978 Keith Jarrett - Sun Bear Concerts (2021) {ECM} [24-96]
Дата переиздания диска:
30 июля 2021
Издатель (лейбл):
Носитель:
WEB
Формат:
PCM
Тип рипа:
tracks
Контейнер:
FLAC (*.flac)
Количество каналов:
2.0
Разрядность/ЧД:
24/96
Битрейт аудио:
lossless
Время звучания:
06:41:54
Наличие сканов:
буклет pdf

01. Kyoto - November 5, 1976, Pt. 1 (44:24)
02. Kyoto - November 5, 1976, Pt. 2 (35:25)
03. Osaka - November 8, 1976, Pt. 1 (39:01)
04. Osaka - November 8, 1976, Pt. 2 (31:09)
05. Nagoya - November 12, 1976, Pt. 1 (36:03)
06. Nagoya - November 12, 1976, Pt. 2 (44:19)
07. Tokyo - November 14, 1976, Pt. 1 (40:40)
08. Tokyo - November 14, 1976, Pt. 2 (44:05)
09. Sapporo - November 18, 1976, Pt. 1 (41:17)
10. Sapporo - November 18, 1976, Pt. 2 (45:36)

Состав:
  • Engineer – Okihiko Sugano, Shinji Ohtsuka
  • Engineer [Recording Engineer] – Okihiko Sugano, Shinji Ohtsuka
  • Piano, Music By – Keith Jarrett
  • Producer – Manfred Eicher
Лог проверки качества
foobar2000 1.4.8 / Dynamic Range Meter 1.1.1
log date: 2021-07-31 06:55:04
--------------------------------------------------------------------------------
Analyzed: Keith Jarrett / Sun Bear Concerts
--------------------------------------------------------------------------------
DR         Peak         RMS     Duration Track
--------------------------------------------------------------------------------
DR13      -0.81 dB   -18.66 dB     44:24 01-Kyoto - November 5, 1976, Pt. 1
DR12      -0.75 dB   -17.50 dB     35:25 02-Kyoto - November 5, 1976, Pt. 2
DR13      -0.93 dB   -18.94 dB     39:01 03-Osaka - November 8, 1976, Pt. 1
DR14      -0.66 dB   -20.12 dB     31:09 04-Osaka - November 8, 1976, Pt. 2
DR14      -0.71 dB   -19.45 dB     36:03 05-Nagoya - November 12, 1976, Pt. 1
DR14      -0.74 dB   -20.52 dB     44:19 06-Nagoya - November 12, 1976, Pt. 2
DR15      -0.72 dB   -20.51 dB     40:40 07-Tokyo - November 14, 1976, Pt. 1
DR13      -0.74 dB   -18.94 dB     44:05 08-Tokyo - November 14, 1976, Pt. 2
DR13      -0.50 dB   -18.68 dB     41:17 09-Sapporo - November 18, 1976, Pt. 1
DR14      -0.68 dB   -18.71 dB     45:36 10-Sapporo - November 18, 1976, Pt. 2
--------------------------------------------------------------------------------
Number of tracks:  10
Official DR value: DR14
Samplerate:        96000 Hz
Channels:          2
Bits per sample:   24
Bitrate:           2921 kbps
Codec:             FLAC
================================================================================
Приватный:
Нет (DHT включён)
Размер:
8.13 Гб (8,733,342,898 байт) » файлов: 13
Участники:
0 раздают, 0 качают (0 участников всего)
Внешние участники:
17 раздают, 5 качают (22 участников всего) [ Обновить ]
16:06
492
Нет комментариев. Ваш будет первым!