Поиск

2021 Adriano Trindade, Giacomo Bondi - Garota De Ipanema, Vol.1 {GBMUSIC} [24-48]

2021 Adriano Trindade, Giacomo Bondi - Garota De Ipanema, Vol.1 {GBMUSIC} [24-48]
Дата издания диска:
14 июля 2021
Носитель:
WEB
Формат:
PCM
Тип рипа:
tracks
Контейнер:
FLAC (*.flac)
Количество каналов:
2.0
Разрядность/ЧД:
24/48
Битрейт аудио:
lossless
Время звучания:
00:41:12
Наличие сканов:
только обложка

Треклист:

01 - Mais que isso (05:19)
02 - Dupla tracao (04:17)
03 - Casa pre fabricada (03:22)
04 - Bananeira (03:51)
05 - Ancorado (05:26)
06 - Amar (04:05)
07 - A mao do destino (03:02)
08 - Ciclo (03:34)
09 - Apesare de cigano (03:53)
10 - Egito (04:20)

Лог проверки качества
foobar2000 1.4.2 / Dynamic Range Meter 1.1.1
log date: 2021-07-31 07:11:58
--------------------------------------------------------------------------------
Analyzed: Adriano Trindade / Garota de Ipanema Vol.1
--------------------------------------------------------------------------------
DR         Peak         RMS     Duration Track
--------------------------------------------------------------------------------
DR8       -0.10 dB    -9.33 dB      5:20 01-Mais que isso
DR9       -0.10 dB   -10.51 dB      4:18 02-Dupla tracao
DR9       -0.10 dB   -10.54 dB      3:22 03-Casa pre fabricada
DR8       -0.10 dB    -9.46 dB      3:52 04-Bananeira
DR9       -0.10 dB   -10.46 dB      5:26 05-Ancorado
DR9       -0.10 dB    -9.79 dB      4:05 06-Amar
DR9       -0.10 dB   -10.27 dB      3:02 07-A mao do destino
DR9       -0.10 dB   -10.83 dB      3:34 08-Ciclo
DR9       -0.10 dB   -10.37 dB      3:53 09-Apesare de cigano
DR12       0.00 dB   -13.02 dB      4:21 10-Egito
--------------------------------------------------------------------------------
Number of tracks:  10
Official DR value: DR9
Samplerate:        48000 Hz
Channels:          2
Bits per sample:   24
Bitrate:           1638 kbps
Codec:             FLAC
================================================================================
По всем вопросам пишите личное сообщение пользователю M0p94ok.
19:39
193
Нет комментариев. Ваш будет первым!