Поиск

2021 Massimo Biolcati - Momenta {Sounderscore Inc.} [24-44.1]

2021 Massimo Biolcati - Momenta {Sounderscore Inc.} [24-44.1]
Стили:
Дата записи диска:
8 февраля, 27 февраля, 4 ноября 2020
Дата издания диска:
30 июля 2021
Носитель:
WEB
Формат:
PCM
Тип рипа:
tracks
Контейнер:
FLAC (*.flac)
Количество каналов:
2.0
Разрядность/ЧД:
24/44,1
Битрейт аудио:
lossless
Время звучания:
00:53:13
Наличие сканов:
только обложка

01 - Dario Immaginario (06:07)
02 - Adaptation (07:16)
03 - Emma's Dilemma (06:41)
04 - Love is Stronger Than Pride (05:00)
05 - Along Came Betty (07:25)
06 - Estate (05:14)
07 - Momenta (05:34)
08 - Gumbo Blues (05:40)
09 - In the Wee Small Hours of the Morning (04:13)

Состав:
  • Massimo Biolcati — Bass (all tracks)

Tracks: 1, 4, 5, 7, 9

  • Phil Dizack — Trumpet
  • Kevin Hays — Piano
  • Kendrick Scott — Drums

Recorded at Bunker Studios in Brooklyn, NY by Nolan Thies on February 27, 2020.
Track 3

  • Jaleel Shaw — Alto Sax
  • Lex Korten — Piano
  • Clarence Penn — Drums

Recorded at Bunker Studios in Brooklyn, NY by Alex Conroy on February 8, 2020.
Tracks: 2, 6, 8

  • John Ellis — Tenor Sax
  • Mike Moreno — Guitar
  • Rodney Green — Drums

Recorded at Bunker Studios in Brooklyn, NY by Aaron Nevezie on November 4, 2020.

  • Produced by Massimo Biolcati
  • Mixed and mastered by Dave Darlington at Bass Hit Recording, New York, NY
Лог проверки качества
foobar2000 1.4.2 / Dynamic Range Meter 1.1.1
log date: 2021-07-30 20:11:55
--------------------------------------------------------------------------------
Analyzed: Massimo Biolcati / Momenta
--------------------------------------------------------------------------------
DR         Peak         RMS     Duration Track
--------------------------------------------------------------------------------
DR9       -0.83 dB   -12.85 dB      6:08 01-Dario Immaginario (feat. Philip Dizack, Kevin Hays & Kendrick Scott)
DR10      -0.94 dB   -13.68 dB      7:17 02-Adaptation (feat. John Ellis, Mike Moreno & Rodney Green)
DR11      -0.87 dB   -14.12 dB      6:41 03-Emma's Dilemma (feat. Jaleel Shaw, Lex Korten & Clarence Penn)
DR10      -0.87 dB   -13.95 dB      5:00 04-Love is Stronger Than Pride (feat. Philip Dizack, Kevin Hays & Kendrick Scott)
DR11      -0.85 dB   -14.34 dB      7:26 05-Along Came Betty (feat. Philip Dizack, Kevin Hays & Kendrick Scott)
DR12      -0.90 dB   -16.03 dB      5:14 06-Estate (feat. John Ellis, Mike Moreno & Rodney Green)
DR11      -0.81 dB   -13.76 dB      5:34 07-Momenta (feat. Philip Dizack, Kevin Hays & Kendrick Scott)
DR11      -0.95 dB   -13.41 dB      5:41 08-Gumbo Blues (feat. John Ellis, Mike Moreno & Rodney Green)
DR13      -2.35 dB   -19.10 dB      4:13 09-In the Wee Small Hours of the Morning (feat. Philip Dizack, Kevin Hays & Kendrick Scott)
--------------------------------------------------------------------------------
Number of tracks:  9
Official DR value: DR11
Samplerate:        44100 Hz
Channels:          2
Bits per sample:   24
Bitrate:           1299 kbps
Codec:             FLAC
================================================================================
Приватный:
Нет (DHT включён)
Размер:
572.22 Мб (600,021,326 байт) » файлов: 10
Участники:
56 раздают, 0 качают (56 участников всего)
Внешние участники:
3 раздают, 1 качают (4 участников всего) [ Обновить ]
21:47
518
Нет комментариев. Ваш будет первым!