Поиск

1977 Yusef Lateef with Art Farmer - Autophysiopsychic {CTI, King} [24-192]

1977 Yusef Lateef with Art Farmer - Autophysiopsychic {CTI, King} [24-192]
Стили:
Дата записи диска:
19 октября, 20 октября и 21 октября 1977
Место записи:
Electric Lady Studios, New York City, NY, USA
Издатель (лейбл):
Номер по каталогу:
CTI 7082
Битрейт аудио:
lossless
Доп. инфо:

Формат записи/Источник записи: [TR24][OF]
Издание: Remastered
Год издания/переиздания диска: 1977/2017
Продолжительность: 00:39:16
Наличие сканов в содержимом раздачи: Нет

Контейнер: FLAC (*.flac)
Тип рипа: tracks
Разрядность: 24/192
Количество каналов: 2.0

Источник (релизер): King Records

Autophysiopsychic, вероятно, единственный альбом, который многие поклонники Юсефа Латифа либо любят, либо ненавидят больше всего. Вместе с приглашенным солистом Артом Фармером на флюгельгорне, гитаристом Эриком Гейлом, клавишником Клиффом Картером, барабанщиком Джимом Мэдисоном и басистом Гэри Кингом (за исключением "Sister Mamie", в которой участвуют Стив Гэдд и Алекс Блейк соответственно), "Teefski" пробирается сквозь пять массивных нарезок оригинального фанка, который имеет гораздо больше общего со звуками Chocolate City, чем со звуками бопа 52-й улицы. Autophysiopsychic переполнен мягким соул-фанк-джазом, типичным для произведений Крида Тейлора (CTI) 1970-х годов. И хотя бэк-инструментарий и ритмы - не что иное, как мейнстримный R&B и фанк, пронизанный некоторыми странностями, Фармер и Латиф (на тенор и сопрано саксофонах, флейте и шанае) записывают соло, которые захватывают и свингуют так мгновенно, что обеспечивают музыкальное достоинство всего этого проекта. Кажется, что каждый постоянно подталкивает другого - Латиф более крепкий и кусачий, Фармер более плавный и мягкий - до следующего уровня. Их повороты в "Человеке-роботе" и "Look On Your Right Side" особенно запоминаются, особенно заключительное соло Фармера в "Right Side", которое, кажется, смешивает новоорлеанский свинг с простотой детской песни. Не самый типичный альбом в обширном каталоге Латифа, но, безусловно, самый веселый.

Лог проверки качества
foobar2000 1.4.3 / Dynamic Range Meter 1.1.1
log date: 2021-01-03 11:05:56

--------------------------------------------------------------------------------
Analyzed: Yusef Lateef with Art Farmer / Autophysiopsychic
--------------------------------------------------------------------------------

DR         Peak         RMS     Duration Track
--------------------------------------------------------------------------------
DR10      -0.01 dB   -12.15 dB      6:40 01-Robot Man
DR11      -0.01 dB   -12.95 dB      5:11 02-Look on the Right Side
DR9       -0.01 dB   -10.71 dB      7:58 03-Yi
DR10      -0.01 dB   -11.93 dB      9:24 04-Communication
DR9       -0.01 dB   -10.77 dB     10:09 05-Sister Mamie
--------------------------------------------------------------------------------

Number of tracks:  5
Official DR value: DR10

Samplerate:        192000 Hz
Channels:          2
Bits per sample:   24
Bitrate:           5377 kbps
Codec:             FLAC
================================================================================
No seeders - write personal message to M0p94ok. Any questions - support@pro-jazz.com.
Нет сидеров - пишите в личку M0p94ok. Есть вопросы - support@pro-jazz.com
15:08
156
Нет комментариев. Ваш будет первым!