Поиск

2010 Benoit Delbecq Trio - The Sixth Jump {Songlines SGL1585-2} [24-96]

2010 Benoit Delbecq Trio - The Sixth Jump {Songlines SGL1585-2} [24-96]
Дата записи диска:
12 июля - 13 июля 2008
Место записи:
La Muse en Circuit, Alfortville, France
Дата издания диска:
12 октября 2010
Номер по каталогу:
SGL1585-2
Носитель:
WEB
Формат:
PCM
Тип рипа:
tracks
Контейнер:
FLAC (*.flac)
Количество каналов:
2.0
Разрядность/ЧД:
24/96
Битрейт аудио:
lossless
Время звучания:
00:51:33
Наличие сканов:
буклет pdf
Страна-производитель диска (релиза):
Canada
Релизёр (источник):
M0p94ok

This album is available on our DC++ hub: dc.pro-jazz.com
Этот альбом доступен на нашем DC++ хабе: dc.pro-jazz.com

Треклист:

01. Ando 6:52
02. Poursuite / Drum Page 5:44
03. Letter to György L. 3:46
04. Barragan 5:08
05. Piano Page 3:49
06. Aka 5:30
07. Le Même Jour 4:19
08. Yompa 5:02
09. Le Sixième Saut 4:02
10. Pointe de la courte dune / Bass Page 7:22

Состав:
  • Bass – Jean-Jacques Avenel
  • Drums, Percussion – Émile Biayenda
  • Executive-Producer – Tony Reif
  • Mastered By – Graemme Brown
  • Piano – Benoît Delbecq
  • Producer – Benoît Delbecq
  • Producer, Mixed By – Steve Argüelles (tracks: 2, 5, 10)
  • Recorded By, Mixed By – Etienne Bultingaire
  • Remix – Steve Argüelles (tracks: 2, 5, 10)
  • Technician [Bösendorfer Piano Technician] – Philippe Bailleul
Доп. инфо:

Mixed at La Muse en Circuit, Oct. 2008.
Mastered at Zen Mastering, Vancouver
Remixes produced at PlushSpace, Paris, Sept. 2008.

Лог проверки качества
foobar2000 1.3.16 / Dynamic Range Meter 1.1.1
log date: 2019-05-09 02:34:12

--------------------------------------------------------------------------------
Analyzed: Benoît Delbecq Trio / The Sixth Jump
--------------------------------------------------------------------------------

DR         Peak         RMS     Duration Track
--------------------------------------------------------------------------------
DR12      -0.20 dB   -14.29 dB      6:48 01-Ando
DR12      -0.20 dB   -14.07 dB      5:39 02-Poursuite / Drum Page
DR12      -0.20 dB   -15.98 dB      3:43 03-Letter to György L.
DR12      -0.20 dB   -13.79 dB      5:05 04-Barragán
DR11      -2.38 dB   -15.76 dB      3:45 05-Piano Page
DR13      -0.20 dB   -16.33 dB      5:27 06-Aka
DR12      -0.20 dB   -17.28 dB      4:19 07-Le même jour
DR12      -0.20 dB   -13.65 dB      4:58 08-Yompa
DR13      -0.20 dB   -16.80 dB      3:58 09-Le sixième saut
DR11      -0.20 dB   -13.35 dB      7:19 10-Pointe de la courte dune / Bass Page
--------------------------------------------------------------------------------

Number of tracks:  10
Official DR value: DR12

Samplerate:        96000 Hz
Channels:          2
Bits per sample:   24
Bitrate:           2689 kbps
Codec:             FLAC
================================================================================
13:24
581
Нет комментариев. Ваш будет первым!