Поиск

2021 Arne Torvik Trio - Northwestern Songs {Losen LOS 240-1} [24-48]

2021 Arne Torvik Trio - Northwestern Songs {Losen LOS 240-1} [24-48]
Стили:
Дата записи диска:
1 июня 2019
Место записи:
Newtone Studio, Oslo, Norway
Дата издания диска:
8 января 2021
Номер по каталогу:
LOS 240-1
Носитель:
WEB
Формат:
PCM
Тип рипа:
tracks
Контейнер:
FLAC (*.flac)
Количество каналов:
2.0
Разрядность/ЧД:
24/48
Битрейт аудио:
lossless
Время звучания:
00:39:53
Наличие сканов:
только обложка
Наличие водяных знаков:
нет
Страна-производитель диска (релиза):
Norway
Релизёр (источник):
M0p94ok

Треклист:

1. Compromises  03:05
2. Psalm  08:04
3. First Song  07:12
4. Åpent rom  05:30
5. Home  04:43
6. Iver  08:10
7. Johan  03:09

Лог проверки качества
foobar2000 1.6.2 / Dynamic Range Meter 1.1.1
log date: 2021-03-06 18:44:19

--------------------------------------------------------------------------------
Analyzed: Arne Torvik Trio / Northwestern Songs
--------------------------------------------------------------------------------

DR         Peak         RMS     Duration Track
--------------------------------------------------------------------------------
DR13      -0.98 dB   -16.84 dB      3:06 01-Compromises
DR9       -0.98 dB   -14.20 dB      8:04 02-Psalm
DR10      -0.98 dB   -13.90 dB      7:12 03-First Song
DR12      -0.98 dB   -16.59 dB      5:31 04-Åpent rom
DR11      -1.18 dB   -15.47 dB      4:43 05-Home
DR9       -0.98 dB   -13.30 dB      8:11 06-Iver
DR12      -0.98 dB   -16.32 dB      3:10 07-Johan
--------------------------------------------------------------------------------

Number of tracks:  7
Official DR value: DR11

Samplerate:        48000 Hz
Channels:          2
Bits per sample:   24
Bitrate:           1457 kbps
Codec:             FLAC
================================================================================
Приватный:
Нет (DHT включён)
Размер:
426.08 Мб (446,778,157 байт) » файлов: 10
Участники:
25 раздают, 4 качают (29 участников всего)
Внешние участники:
--- [ Обновить ]
Скорость:
719.91 Кб/c 0/c
No seeders - write personal message to M0p94ok. Нет сидеров - пишите в личку M0p94ok.
20:04
154
Нет комментариев. Ваш будет первым!