Поиск

2008 One For All - What's Going On (2017) {Venus VHGD-263} [DSD64]

2008 One For All - What's Going On (2017) {Venus VHGD-263} [DSD64]
Дата записи диска:
29 мая 2007
Место записи:
The Studio In N.Y., New York City, NY, USA
Дата издания диска:
28 июля 2008
Дата переиздания диска:
20 декабря 2017
Издатель (лейбл):
Номер по каталогу:
VHGD-263
Битрейт аудио:
lossless
Доп. инфо:

Формат записи/Источник записи: [SACD-R][OF]
Наличие водяных знаков: Нет
Год издания/переиздания диска: 2007/2017
Продолжительность: 00:57:41
Наличие сканов в содержимом раздачи: Только обложка альбома

Контейнер: ISO (*.iso)
Тип рипа: image
Разрядность: 64 (2,8 MHz/1 Bit)
Формат: DSD
Количество каналов: 2.0

Доп. информация: venusrecords
Источник (релизер): jazzy pic

Лог проверки качества
foobar2000 1.6.2 / Замер динамического диапазона (DR) 1.1.1
Дата отчёта:  2021-01-08 18:34:39

--------------------------------------------------------------------------------
Анализ:   One For All / WHAT'S GOING ON?
--------------------------------------------------------------------------------

DR         Пики         RMS           Продолжительность трека
--------------------------------------------------------------------------------
DR7       -4.42 дБ   -12.80 дБ      6:50 01-What's Going On?
DR7       -4.92 дБ   -12.67 дБ      5:23 02-How Sweet It Is ( To Be Loved By You )
DR7       -4.60 дБ   -13.43 дБ      8:07 03-Let's Stay Together
DR7       -4.69 дБ   -12.85 дБ      6:53 04-Reasons
DR7       -4.65 дБ   -12.84 дБ      5:51 05-Golden Lady
DR7       -4.71 дБ   -13.06 дБ      6:24 06-For The Love Of You
DR7       -4.74 дБ   -12.46 дБ      5:32 07-Stop! In The Name Of Love
DR7       -4.71 дБ   -12.63 дБ      4:59 08-Moon Blue
DR7       -4.46 дБ   -13.02 дБ      7:42 09-Betcha By Golly, Wow
--------------------------------------------------------------------------------

Количество треков: 9
Реальные значения DR: DR7

Частота:  2822400 Гц / Частота PCM: 352800 Гц
Каналов:  2
Разрядность:   1
Битрейт:  5645 кбит/с
Кодек:   DSD64
================================================================================
No seeders - write personal message to M0p94ok. Any questions - support@pro-jazz.com.
Нет сидеров - пишите в личку M0p94ok. Есть вопросы - support@pro-jazz.com
19:24
151
19:25