Поиск

1974 Wayne Shorter - Moto Grosso Feio (2014) {Blue Note} [24-96]

1974 Wayne Shorter - Moto Grosso Feio (2014) {Blue Note} [24-96]
Стили:
Дата записи диска:
26 августа 1970
Место записи:
A&R Studios, New York City, NY, USA
Дата издания диска:
1 августа 1974
Издатель (лейбл):
Номер по каталогу:
BN-LA014-G
Носитель:
WEB
Формат:
PCM
Тип рипа:
tracks
Контейнер:
FLAC (*.flac)
Количество каналов:
2.0
Разрядность/ЧД:
24/96
Битрейт аудио:
lossless
Время звучания:
00:42:18
Наличие сканов:
только обложка
Наличие водяных знаков:
нет
Страна-производитель диска (релиза):
USA
Релизёр (источник):
M0p94ok

Треклист:

01. Moto Grosso Feio (12:29)
02. Montezuma (7:53)
03. Antigua (5:25)
04. Vera Cruz (5:12)
05. Iska (11:21)

Доп. инфо:

Записанный в тот же день, что и превосходная Odyssey of Iska, эта свободная сессия (последняя сессия Уэйна Шортера для лейбла Blue Note) довольно необычна. Хотя Шортер придерживается своего обычного тенора и сопрано, пианист Чик Кориа играет на маримбе, барабанах и перкуссии; басист Рон Картер в основном играет на виолончели; электрогитарист Джон Маклафлин предпочитает 12-струнную гитару, басист Дэйв Холланд также играет на акустической гитаре, а завершает группу барабанщик Мишлен Прелл. Не выпускавшаяся до 1974 года, музыка вдохновлена ранним фьюжном и имеет свои интересные моменты, хотя часто и колеблется. Группа исполняет «Vera Cruz» Милтона Насименто и четыре оригинала Шортера, из которых «Монтесума» является самым известным.

Лог проверки качества
foobar2000 1.6.2 / Dynamic Range Meter 1.1.1
log date: 2021-03-06 16:41:34

--------------------------------------------------------------------------------
Analyzed: Wayne Shorter / Moto Grosso Feio
--------------------------------------------------------------------------------

DR         Peak         RMS     Duration Track
--------------------------------------------------------------------------------
DR15      -0.96 dB   -20.79 dB     12:28 01-Moto Grosso Feio
DR12      -1.57 dB   -16.64 dB      7:52 02-Montezuma
DR14      -3.71 dB   -21.70 dB      5:24 03-Antiqua
DR13      -2.91 dB   -22.20 dB      5:11 04-Vera Cruz
DR14      -0.33 dB   -19.13 dB     11:22 05-Iska
--------------------------------------------------------------------------------

Number of tracks:  5
Official DR value: DR14

Samplerate:        96000 Hz
Channels:          2
Bits per sample:   24
Bitrate:           2795 kbps
Codec:             FLAC
================================================================================
Приватный:
Нет (DHT включён)
Размер:
831.28 Мб (871,656,329 байт) » файлов: 7
Участники:
3 раздают, 0 качают (3 участников всего)
Внешние участники:
--- [ Обновить ]
No seeders - write personal message to M0p94ok. Нет сидеров - пишите в личку M0p94ok.
18:06
97
Нет комментариев. Ваш будет первым!