Поиск

1978 Hank Crawford - Cajun Sunrise (2017) {CTI} [24-192]

1978 Hank Crawford - Cajun Sunrise (2017) {CTI} [24-192]
Стили:
Место записи:
Electric Lady Studios, New York City, NY, USA
Дата переиздания диска:
6 декабря 2017
Издатель (лейбл):
Битрейт аудио:
lossless
Доп. инфо:

Формат записи/Источник записи: [TR24][OF]
Издание: Remastered
Год издания/переиздания диска: 1978/2017
Продолжительность: 00:36:59
Наличие сканов в содержимом раздачи: Нет

Контейнер: FLAC (*.flac)
Тип рипа: tracks
Разрядность: 24/192
Количество каналов: 2.0

Источник (релизер): King Records

Лог проверки качества
foobar2000 1.4.3 / Dynamic Range Meter 1.1.1
log date: 2020-12-31 08:52:23

--------------------------------------------------------------------------------
Analyzed: Hank Crawford / Cajun Sunrise
--------------------------------------------------------------------------------

DR         Peak         RMS     Duration Track
--------------------------------------------------------------------------------
DR10      -0.10 dB   -12.91 dB      5:09 01-What a Difference You've Made in My Life
DR10      -0.10 dB   -12.37 dB      4:00 02-I Don't Want No Happy Songs
DR11      -0.10 dB   -12.76 dB      6:21 03-New York's One Soulful City
DR12      -0.10 dB   -14.16 dB      3:31 04-Take This Job and Shove It
DR11      -0.10 dB   -13.54 dB      4:18 05-Just the Way You Are
DR10      -0.10 dB   -12.88 dB      3:35 06-Daytime Friends
DR13      -0.10 dB   -16.11 dB      4:10 07-Evergreen
DR13      -0.10 dB   -16.29 dB      5:59 08-Cajun Sunrise
--------------------------------------------------------------------------------

Number of tracks:  8
Official DR value: DR11

Samplerate:        192000 Hz
Channels:          2
Bits per sample:   24
Bitrate:           5077 kbps
Codec:             FLAC
================================================================================
No seeders - write personal message to M0p94ok. Any questions - support@pro-jazz.com.
Нет сидеров - пишите в личку M0p94ok. Есть вопросы - support@pro-jazz.com
17:04
162
Нет комментариев. Ваш будет первым!