Поиск

2019 Anne Mette Iversen's Ternion Quartet - Invincible Nimbus {Brooklyn Jazz Underground} [24-44.1]

2019 Anne Mette Iversen's Ternion Quartet - Invincible Nimbus {Brooklyn Jazz Underground} [24-44.1]
Дата записи диска:
15 сентября - 16 сентября 2018
Дата издания диска:
10 мая 2019
Носитель:
WEB
Формат:
PCM
Тип рипа:
tracks
Контейнер:
FLAC (*.flac)
Количество каналов:
2.0
Разрядность/ЧД:
24/44,1
Битрейт аудио:
lossless
Время звучания:
00:51:59
Наличие сканов:
только обложка
Страна-производитель диска (релиза):
USA
Релизёр (источник):
M0p94ok
Лог проверки качества
foobar2000 1.6.2 / Dynamic Range Meter 1.1.1
log date: 2021-03-06 15:23:47

--------------------------------------------------------------------------------
Analyzed: Anne Mette Iversen's Ternion Quartet / Invincible Nimbus
--------------------------------------------------------------------------------

DR         Peak         RMS     Duration Track
--------------------------------------------------------------------------------
DR8       -0.70 dB   -11.75 dB      6:48 01-Polychromatic Pictures
DR8       -0.70 dB   -11.71 dB      4:52 02-Within a Diapason
DR12      -0.77 dB   -16.28 dB      8:50 03-The Invincible Nimbus of Mystery
DR9       -0.79 dB   -13.71 dB      0:21 04-Ghost Word 1
DR9       -0.70 dB   -11.87 dB      5:52 05-Dig Your Heels In
DR9       -0.72 dB   -12.56 dB      6:06 06-Four Snakes
DR13      -0.78 dB   -17.18 dB      2:25 07-Ghost Word 3
DR10      -0.72 dB   -13.96 dB      6:36 08-The Rose Window
DR10      -0.70 dB   -15.19 dB      8:13 09-Ionian Steps
DR11      -2.76 dB   -16.87 dB      2:01 10-Ghost Word 2
--------------------------------------------------------------------------------

Number of tracks:  10
Official DR value: DR10

Samplerate:        44100 Hz
Channels:          2
Bits per sample:   24
Bitrate:           1401 kbps
Codec:             FLAC
================================================================================
No seeders - write personal message to M0p94ok. Any questions - support@pro-jazz.com.
Нет сидеров - пишите в личку M0p94ok. Есть вопросы - support@pro-jazz.com
16:39
135
Нет комментариев. Ваш будет первым!