Поиск

2005 One For All - Killer Joe (2017) {Venus VHGD-216} [DSD64]

2005 One For All - Killer Joe (2017) {Venus VHGD-216} [DSD64]
Стили:
Дата записи диска:
17 марта 2005
Место записи:
Clinton Studio, New York City, NY, USA
Дата переиздания диска:
19 апреля 2017
Издатель (лейбл):
Номер по каталогу:
VHGD-216
Битрейт аудио:
lossless
Доп. инфо:

Формат записи/Источник записи: [SACD-R][OF]
Наличие водяных знаков: Нет
Год издания/переиздания диска: 2005/2017
Продолжительность: 01:01:10

Контейнер: ISO (*.iso)
Тип рипа: image
Разрядность: 64 (2,8 MHz/1 Bit)
Формат: DSD
Количество каналов: 2.0

Доп. информация: venusrecords
Источник (релизер): jazzy pic

Лог проверки качества
foobar2000 1.6.2 / Замер динамического диапазона (DR) 1.1.1
Дата отчёта:  2021-01-07 11:22:59

--------------------------------------------------------------------------------
Анализ:   ONE FOR ALL / Killer Joe
--------------------------------------------------------------------------------

DR         Пики         RMS           Продолжительность трека
--------------------------------------------------------------------------------
DR9       -2.01 дБ   -12.91 дБ      6:14 01-Killer Joe
DR8       -2.07 дБ   -12.56 дБ      6:44 02-Island
DR9       -2.13 дБ   -13.14 дБ     11:02 03-Night Mist Blues
DR8       -1.66 дБ   -12.23 дБ      6:49 04-Mathing Call
DR9       -1.57 дБ   -12.33 дБ     10:29 05-Hot Sake
DR8       -2.06 дБ   -12.19 дБ      6:20 06-Say When
DR9       -2.22 дБ   -13.85 дБ      7:03 07-I Remember Clifford
DR8       -1.81 дБ   -11.50 дБ      6:26 08-You Know I Care
--------------------------------------------------------------------------------

Количество треков: 8
Реальные значения DR: DR9

Частота:  2822400 Гц / Частота PCM: 352800 Гц
Каналов:  2
Разрядность:   1
Битрейт:  5645 кбит/с
Кодек:   DSD64
================================================================================
No seeders - write personal message to M0p94ok. Any questions - support@pro-jazz.com.
Нет сидеров - пишите в личку M0p94ok. Есть вопросы - support@pro-jazz.com
15:48
149
Нет комментариев. Ваш будет первым!