Поиск

1957 Anna Maria Alberghetti - I Can't Resist You (2019) {RevOla} [24-44.1]

1957 Anna Maria Alberghetti - I Can't Resist You (2019) {RevOla} [24-44.1]
Дата записи диска:
22 июня - 24 июня 1957
Издатель (лейбл):
Носитель:
CD
Формат:
PCM
Тип рипа:
tracks
Контейнер:
FLAC (*.flac)
Количество каналов:
2.0
Разрядность/ЧД:
24/44,1
Битрейт аудио:
lossless
Время звучания:
00:31:50
Наличие сканов:
только обложка
Страна-производитель диска (релиза):
USA
Релизёр (источник):
M0p94ok
Лог проверки качества
foobar2000 1.3.16 / Dynamic Range Meter 1.1.1
log date: 2019-05-12 15:23:27

--------------------------------------------------------------------------------
Analyzed: Anna Maria Alberghetti / I Can't Resist You
--------------------------------------------------------------------------------

DR         Peak         RMS     Duration Track
--------------------------------------------------------------------------------
DR9       -6.27 dB   -20.05 dB      2:39 01-I'm Glad There Is You
DR9       -6.08 dB   -19.51 dB      2:57 02-They Didn't Believe Me
DR10      -5.73 dB   -20.80 dB      2:16 03-Tenderly
DR8       -5.69 dB   -19.53 dB      2:46 04-I Only Have Eyes for You
DR11      -6.21 dB   -19.97 dB      2:14 05-My One and Only Love
DR12      -6.08 dB   -20.94 dB      2:51 06-I Can't Resist You
DR11      -6.10 dB   -21.17 dB      2:48 07-I've Got a Crush On You
DR9       -6.05 dB   -18.59 dB      2:56 08-I Concentrate On You
DR9       -6.27 dB   -20.01 dB      3:09 09-Don't Blame Me
DR10      -5.75 dB   -19.48 dB      2:14 10-With Every Breath I Take
DR9       -6.23 dB   -19.20 dB      2:16 11-Too Young
DR8       -6.00 dB   -17.61 dB      2:46 12-I'll See You In My Dreams
--------------------------------------------------------------------------------

Number of tracks:  12
Official DR value: DR10

Samplerate:        44100 Hz
Channels:          2
Bits per sample:   24
Bitrate:           650 kbps
Codec:             FLAC
================================================================================
No seeders - write personal message to M0p94ok. Any questions - support@pro-jazz.com.
Нет сидеров - пишите в личку M0p94ok. Есть вопросы - support@pro-jazz.com
15:26
179
15:27