Поиск

2017 Trio Heinz Herbert - The Willisau Concert (Live) {Intakt} [24-48]

2017 Trio Heinz Herbert - The Willisau Concert (Live) {Intakt} [24-48]
Стили:
Дата записи диска:
2 сентября 2016
Место записи:
Jazzfestival Willisau, Switzerland
Дата издания диска:
17 марта 2017
Издатель (лейбл):
Номер по каталогу:
287
Носитель:
WEB
Формат:
PCM
Тип рипа:
tracks
Контейнер:
FLAC (*.flac)
Количество каналов:
2.0
Разрядность/ЧД:
24/48
Битрейт аудио:
lossless
Время звучания:
00:59:49
Наличие сканов:
только обложка
Страна-производитель диска (релиза):
Switzerland
Релизёр (источник):
M0p94ok
Лог проверки качества
foobar2000 1.6.2 / Dynamic Range Meter 1.1.1
log date: 2021-03-05 18:15:17

--------------------------------------------------------------------------------
Analyzed: Trio Heinz Herbert / The Willisau Concert (Live)
--------------------------------------------------------------------------------

DR         Peak         RMS     Duration Track
--------------------------------------------------------------------------------
DR7        0.00 dB   -11.34 dB     18:08 01-Granulare Liebe / LEI
DR8        0.00 dB   -13.34 dB     11:51 02-Fragment Z / Bruggada
DR7        0.00 dB   -11.78 dB     11:46 03-Hyper Down
DR8        0.00 dB   -12.05 dB      8:39 04-Heinz Steps
DR6        0.00 dB   -10.28 dB      8:30 05-Planet Cita K
DR15       0.00 dB   -18.47 dB      0:59 06-Gumpi Ball
--------------------------------------------------------------------------------

Number of tracks:  6
Official DR value: DR8

Samplerate:        48000 Hz
Channels:          2
Bits per sample:   24
Bitrate:           1640 kbps
Codec:             FLAC
================================================================================
No seeders - write personal message to M0p94ok. Any questions - support@pro-jazz.com.
Нет сидеров - пишите в личку M0p94ok. Есть вопросы - support@pro-jazz.com
20:08
151
Нет комментариев. Ваш будет первым!