Поиск

1999 Paquito D’Rivera - Tropicana Nights (2000) {Chesky} [DSD64]

1999 Paquito D’Rivera - Tropicana Nights (2000) {Chesky} [DSD64]
Дата издания диска:
28 сентября 1999
Издатель (лейбл):
Битрейт аудио:
lossless

Треклист:

01. Mambo a La Kenton  03:58
02. Chucho  03:34
03. Cicuta Tibia  04:57
04. Siboney  06:31
05. Old Miami Sax  04:21
06. Tropicana Nights  05:29
07. Sustancia  03:45
08. Como Fue  05:48
09. El Coronel Y Marina  03:02
10. Mambo Inn  04:08
11. A Mi Que/El Manisero (The Peanut Vendor)  03:59

Лог проверки качества
foobar2000 1.6.2 / Замер динамического диапазона (DR) 1.1.1
Дата отчёта:  2021-01-07 11:06:53

--------------------------------------------------------------------------------
Анализ:   Paquito D'Rivera / Tropicana Nights
--------------------------------------------------------------------------------

DR         Пики         RMS           Продолжительность трека
--------------------------------------------------------------------------------
DR15      -4.01 дБ   -21.77 дБ      3:56 01-Mambo A La Kenton
DR15      -5.05 дБ   -22.03 дБ      3:34 02-Chucho
DR16      -5.55 дБ   -23.19 дБ      4:57 03-Cicuta Tibia
DR15      -4.26 дБ   -22.88 дБ      6:31 04-Siboney
DR16      -4.61 дБ   -22.59 дБ      4:21 05-Old Miami Sax
DR16      -4.32 дБ   -21.77 дБ      5:29 06-Tropicana Nights
DR17      -2.96 дБ   -23.37 дБ      3:45 07-Sustancia
DR15      -4.34 дБ   -22.83 дБ      5:48 08-Como Fue
DR16      -4.95 дБ   -22.99 дБ      3:02 09-El Coronel Y Marina
DR16      -4.06 дБ   -22.62 дБ      4:08 10-Mambo Inn
DR14      -6.94 дБ   -23.92 дБ      3:59 11-A Mi Que / El Manisero ( The Peanut Vendor)
--------------------------------------------------------------------------------

Количество треков: 11
Реальные значения DR: DR15

Частота:  2822400 Гц / Частота PCM: 352800 Гц
Каналов:  2
Разрядность:   1
Битрейт:  5645 кбит/с
Кодек:   DSD64
================================================================================
Приватный:
Нет (DHT включён)
Размер:
1.99 Гб (2,141,103,804 байт) » файлов: 4
Участники:
2 раздают, 1 качают (3 участников всего)
Внешние участники:
14 раздают, 5 качают (19 участников всего) [ Обновить ]
No seeders - write personal message to M0p94ok. Нет сидеров - пишите в личку M0p94ok.
14:30
91
Нет комментариев. Ваш будет первым!