Поиск

2018 Alexandrina Simeon Quintett - Ocean Tales {Unit UTR 4833} [24-44.1]

2018 Alexandrina Simeon Quintett - Ocean Tales {Unit UTR 4833} [24-44.1]
Место записи:
Realistic Sound Studio, Munich, Germany
Дата издания диска:
16 марта 2018
Номер по каталогу:
Unit UTR 4833
Носитель:
WEB
Формат:
PCM
Тип рипа:
tracks
Контейнер:
FLAC (*.flac)
Количество каналов:
2.0
Разрядность/ЧД:
24/44,1
Битрейт аудио:
lossless
Время звучания:
01:00:08
Наличие сканов:
только обложка
Страна-производитель диска (релиза):
Switzerland
Релизёр (источник):
M0p94ok
Лог проверки качества
foobar2000 1.3.16 / Dynamic Range Meter 1.1.1
log date: 2019-05-14 17:46:54

--------------------------------------------------------------------------------
Analyzed: Alexandrina Simeon Quintett / Ocean Tales
--------------------------------------------------------------------------------

DR         Peak         RMS     Duration Track
--------------------------------------------------------------------------------
DR11      -0.50 dB   -15.15 dB      5:25 01-Blackbird
DR11      -0.50 dB   -13.09 dB      5:55 02-On the Fly
DR13      -0.96 dB   -16.20 dB      2:16 03-Vocals on Fire
DR11      -0.50 dB   -15.23 dB      8:29 04-Dove over Black Sea
DR11      -0.50 dB   -14.53 dB      5:12 05-Dilmano, Dilbero
DR11      -0.63 dB   -16.21 dB      4:29 06-Na Kraia Na Sweta
DR11      -0.50 dB   -13.99 dB      4:50 07-Frieden
DR11      -0.50 dB   -14.11 dB      5:29 08-Glasperlenspiel
DR13      -0.68 dB   -17.61 dB      9:16 09-Run into Life
DR10      -0.50 dB   -14.25 dB      6:46 10-Fun(k)park
DR8       -6.62 dB   -19.14 dB      2:09 11-Prispiwna Pesen
--------------------------------------------------------------------------------

Number of tracks:  11
Official DR value: DR11

Samplerate:        44100 Hz
Channels:          2
Bits per sample:   24
Bitrate:           1252 kbps
Codec:             FLAC
================================================================================
No seeders - write personal message to M0p94ok. Any questions - support@pro-jazz.com.
Нет сидеров - пишите в личку M0p94ok. Есть вопросы - support@pro-jazz.com
12:47
147
Нет комментариев. Ваш будет первым!