Вы используете незарегистрированную версию компонента "Вкладки"!

Поиск

1994 Barney Wilen Quartet - New York Romance (2000) {Venus TKGV-1} [DSD64]

1994 Barney Wilen Quartet - New York Romance (2000) {Venus TKGV-1} [DSD64]
Дата записи диска:
19 июня - 20 июня 1994
Место записи:
Rudy Van Gelder's Recording Studio, Englewood Cliffs, NJ, USA
Издатель (лейбл):
Номер по каталогу:
TKGV-1
Битрейт аудио:
lossless
Доп. инфо:

Формат записи/Источник записи: [SACD-R][OF]
Наличие водяных знаков: Нет
Год издания/переиздания диска: 1994/2000
Продолжительность: 01:03:06
Наличие сканов в содержимом раздачи: Только обложка альбома

Контейнер: ISO (*.iso)
Тип рипа: image
Разрядность: 64(2,8 MHz/1 Bit)
Формат: DSD
Количество каналов: 2.0

Доп. информация: www.hraudio.net
Источник (релизер): jazzy pic

Чередуя сопрано, тенор и баритон в этой коллекции прямого джаза для японского рынка, Барни Вилен отказывается быть привязанным к одному тону или подходу, даже на одном и том же инструменте. Среди прочего, он имитирует запаздывающую фразировку Lady Day в "You've Changed" на сопрано, "Blues Walk" приятно звучит на баритоне, в то время как "Old Devil Moon" выдержан и юмористичен, а "Mack the Knife" преобразован в холодную томную балладу с почти случайной небрежностью. Повсюду Кенни Бэррон получает акры хорошо продуманного сольного пространства - это практически и его выступление, - а Айра Коулман (бас) и Льюис Нэш (ударные) обеспечивают четкую основу. Чем дальше идет этот сборник, тем интереснее и менее предсказуемо он звучит.

Лог проверки качества
foobar2000 1.6.2 / Замер динамического диапазона (DR) 1.1.1
Дата отчёта:  2021-01-09 18:02:21

--------------------------------------------------------------------------------
Анализ:   ? / ?
--------------------------------------------------------------------------------

DR         Пики         RMS           Продолжительность трека
--------------------------------------------------------------------------------
DR7       -5.47 дБ   -14.66 дБ      9:22 01-NO PROBLEM
DR7       -5.84 дБ   -15.88 дБ      8:29 02-CRY ME A RIVER
DR8       -5.45 дБ   -15.08 дБ      5:55 03-BLUES WALK
DR7       -5.84 дБ   -16.01 дБ      7:24 04-YOU'VE CHANGED
DR8       -5.53 дБ   -14.51 дБ      5:48 05-YOU'D BE SO NICE TO COME HOME TO
DR8       -5.91 дБ   -16.47 дБ      8:15 06-MACK THE KNIFE
DR8       -5.48 дБ   -15.27 дБ      7:24 07-DON'T FENCE ME IN
DR7       -5.52 дБ   -14.17 дБ      6:18 08-OLD DEVIL MOON
DR9       -5.86 дБ   -17.58 дБ      4:12 09-I WILL SAY GOODBYE
--------------------------------------------------------------------------------

Количество треков: 9
Реальные значения DR: DR8

Частота:  2822400 Гц / Частота PCM: 352800 Гц
Каналов:  2
Разрядность:   1
Битрейт:  5645 кбит/с
Кодек:   DSD64
================================================================================
Any questions - support@pro-jazz.com. Есть вопросы - support@pro-jazz.com
17:47
188
Нет комментариев. Ваш будет первым!