Поиск

1995 Barney Wilen Quintet - Passione (2015) {Venus VHGD-78} [DSD64]

1995 Barney Wilen Quintet - Passione (2015) {Venus VHGD-78} [DSD64]
Стили:
Дата записи диска:
12 июля - 14 июля 1995
Издатель (лейбл):
Номер по каталогу:
VHGD-78
Битрейт аудио:
lossless
Лог проверки качества
foobar2000 1.6.2 / Замер динамического диапазона (DR) 1.1.1
Дата отчёта:  2021-01-10 12:32:04

--------------------------------------------------------------------------------
Анализ:   Barney Wilen Quintet / PASSIONE
--------------------------------------------------------------------------------

DR         Пики         RMS           Продолжительность трека
--------------------------------------------------------------------------------
DR10      -4.28 дБ   -15.77 дБ      6:34 01-Jitterbag Waltz
DR9       -4.12 дБ   -15.76 дБ      9:59 02-My Ship
DR10      -4.56 дБ   -16.11 дБ      4:52 03-Line For Lyons
DR10      -4.24 дБ   -16.99 дБ      5:05 04-Estate
DR10      -4.45 дБ   -16.27 дБ      7:06 05-Venetian Rumba
DR11      -4.85 дБ   -19.21 дБ      5:25 06-Passione
DR10      -4.22 дБ   -15.78 дБ      2:36 07-Begonia
DR10      -4.41 дБ   -16.93 дБ      7:22 08-Besame Mucho
DR12      -5.13 дБ   -18.94 дБ      4:09 09-Bella Chao
DR10      -4.52 дБ   -16.82 дБ      6:29 10-I Cover The Waterfront
DR8       -5.42 дБ   -17.52 дБ      0:24 11-Al Herraz
--------------------------------------------------------------------------------

Количество треков: 11
Реальные значения DR: DR10

Частота:  2822400 Гц / Частота PCM: 352800 Гц
Каналов:  2
Разрядность:   1
Битрейт:  5645 кбит/с
Кодек:   DSD64
================================================================================
No seeders - write personal message to M0p94ok. Any questions - support@pro-jazz.com.
Нет сидеров - пишите в личку M0p94ok. Есть вопросы - support@pro-jazz.com
18:05
136
Нет комментариев. Ваш будет первым!