Поиск

2017 George Winston - Spring Carousel {RCA B01MY5RK0T} [24-96]

2017 George Winston - Spring Carousel {RCA B01MY5RK0T} [24-96]
Дата издания диска:
31 марта 2017
Номер по каталогу:
B01MY5RK0T
Носитель:
WEB
Формат:
PCM
Тип рипа:
tracks
Контейнер:
FLAC (*.flac)
Количество каналов:
2.0
Разрядность/ЧД:
24/96
Битрейт аудио:
lossless
Время звучания:
00:53:48
Наличие сканов:
только обложка
Наличие водяных знаков:
нет
Страна-производитель диска (релиза):
USA
Релизёр (источник):
M0p94ok

Треклист:

01. Carousel 1 0:39
02. Carousel 2 1:49
03. Soft Muted Dream 2:58
04. More Than You Know 3:45
05. Many Clocks 5:49
06. Ms Mystery 1 5:34
07. Unrequited Love 1:41
08. Dream 2 2:06
09. Night Blooming / Carousel 16 4:24
10. Fess' Carousels 5:03
11. Ms Mystery 2 4:55
12. Pixie # 13 In C 5:56
13. Ms Mystery 3 3:07
14. Rekindling Love 2:31
15. Requited Love 3:11

Лог проверки качества
foobar2000 1.3.16 / Dynamic Range Meter 1.1.1
log date: 2019-05-01 14:27:30

--------------------------------------------------------------------------------
Analyzed: George Winston / Spring Carousel
--------------------------------------------------------------------------------

DR         Peak         RMS     Duration Track
--------------------------------------------------------------------------------
DR9       -2.25 dB   -13.58 dB      0:39 01-Carousel 1
DR11      -2.87 dB   -16.23 dB      1:49 02-Carousel 2
DR12      -0.90 dB   -15.42 dB      2:58 03-Muted Dream
DR12      -1.52 dB   -17.70 dB      3:45 04-More Than You Know
DR11      -2.09 dB   -14.53 dB      5:49 05-Many Clocks
DR10      -1.67 dB   -14.83 dB      5:34 06-Ms. Mystery 1
DR9       -3.05 dB   -14.52 dB      1:41 07-Unrequited Love
DR14      -2.03 dB   -20.25 dB      2:06 08-Dream 2
DR10      -1.44 dB   -14.42 dB      4:24 09-Night Blooming/Carousel 16
DR10      -2.25 dB   -15.65 dB      5:03 10-Fess' Carousels
DR10      -1.70 dB   -13.37 dB      4:55 11-Ms. Mystery 2
DR10      -0.15 dB   -12.01 dB      5:56 12-Pixie #13 in C (Gobajie)
DR12      -0.87 dB   -15.09 dB      3:07 13-Ms. Mystery 3
DR13       0.00 dB   -15.91 dB      2:31 14-Rekindling Love
DR11      -0.90 dB   -13.45 dB      3:11 15-Requited Love
--------------------------------------------------------------------------------

Number of tracks:  15
Official DR value: DR11

Samplerate:        96000 Hz
Channels:          2
Bits per sample:   24
Bitrate:           2793 kbps
Codec:             FLAC
================================================================================
Приватный:
Нет (DHT включён)
Размер:
1.03 Гб (1,109,699,937 байт) » файлов: 18
Участники:
3 раздают, 0 качают (3 участников всего)
Внешние участники:
--- [ Обновить ]
Скорость:
0/c 44.23 Кб/c
No seeders - write personal message to M0p94ok. Нет сидеров - пишите в личку M0p94ok.
20:32
87
Нет комментариев. Ваш будет первым!