Поиск

2017 Trio 3 - Visiting Texture {Intakt} [24-48]

2017 Trio 3 - Visiting Texture {Intakt} [24-48]
Стили:
Номер по каталогу:
282
Носитель:
WEB
Формат:
PCM
Тип рипа:
tracks
Контейнер:
FLAC (*.flac)
Количество каналов:
2.0
Разрядность/ЧД:
24/48
Битрейт аудио:
lossless
Время звучания:
00:51:44
Наличие сканов:
только обложка
Страна-производитель диска (релиза):
Switzerland
Релизёр (источник):
M0p94ok
Лог проверки качества
foobar2000 1.6.2 / Dynamic Range Meter 1.1.1
log date: 2021-03-11 21:20:34

--------------------------------------------------------------------------------
Analyzed: Trio 3 / Visiting Texture
--------------------------------------------------------------------------------

DR         Peak         RMS     Duration Track
--------------------------------------------------------------------------------
DR13      -1.02 dB   -15.76 dB      5:39 01-Bumper
DR11      -1.02 dB   -14.21 dB      6:08 02-Bonu
DR13      -1.02 dB   -18.28 dB      6:40 03-Composite
DR16      -1.02 dB   -20.96 dB      7:48 04-Epic Man
DR10      -1.02 dB   -13.53 dB      4:56 05-Stick
DR15      -2.16 dB   -21.40 dB      6:59 06-A Girl Named Rainbow
DR13      -1.02 dB   -16.89 dB      2:51 07-7 for Max
DR11      -1.02 dB   -15.49 dB     10:42 08-Visiting Texture
--------------------------------------------------------------------------------

Number of tracks:  8
Official DR value: DR13

Samplerate:        48000 Hz
Channels:          2
Bits per sample:   24
Bitrate:           1559 kbps
Codec:             FLAC
================================================================================
No seeders - write personal message to M0p94ok. Any questions - support@pro-jazz.com.
Нет сидеров - пишите в личку M0p94ok. Есть вопросы - support@pro-jazz.com
22:36
114
Нет комментариев. Ваш будет первым!