Поиск

2000 Barry Harris Trio - The last Time I Saw Paris (2016) {Venus VHGD-133} [DSD64]

2000 Barry Harris Trio - The last Time I Saw Paris (2016) {Venus VHGD-133} [DSD64]
Стили:
Издатель (лейбл):
Номер по каталогу:
VHGD-133
Битрейт аудио:
lossless
Доп. инфо:

Формат записи/Источник записи: [SACD-R][OF]
Наличие водяных знаков: Нет
Год издания/переиздания диска: 2000/2016
Продолжительность: 00:53:07
Наличие сканов в содержимом раздачи: Только обложка альбома

Контейнер: ISO (*.iso)
Тип рипа: image
Разрядность: 64 (2,8 MHz/1 Bit)
Формат: DSD
Количество каналов: 2.0

Доп. информация: venusrecords
Источник (релизер): jazzy pic

Лог проверки качества
foobar2000 1.6.2 / Замер динамического диапазона (DR) 1.1.1
Дата отчёта:  2021-01-10 12:47:39

--------------------------------------------------------------------------------
Анализ:   BARRY HARRIS TRIO / The Last Time I Saw Paris
--------------------------------------------------------------------------------

DR         Пики         RMS           Продолжительность трека
--------------------------------------------------------------------------------
DR9       -4.42 дБ   -15.62 дБ      4:41 01-Bag's Groove
DR8       -4.34 дБ   -14.82 дБ      5:49 02-The Last Time I Saw Paris
DR9       -4.71 дБ   -15.48 дБ      5:31 03-Dancing In The Dark
DR9       -4.24 дБ   -14.81 дБ      3:57 04-I Want To Be Happy
DR9       -4.71 дБ   -16.02 дБ      7:03 05-Once In A While
DR9       -4.11 дБ   -15.51 дБ      5:43 06-Tea For Two
DR11      -4.44 дБ   -17.35 дБ      8:12 07-'Round Midnight
DR8       -4.05 дБ   -14.70 дБ      5:42 08-Oblivion
DR10      -4.76 дБ   -16.91 дБ      6:31 09-Remember
--------------------------------------------------------------------------------

Количество треков: 9
Реальные значения DR: DR9

Частота:  2822400 Гц / Частота PCM: 352800 Гц
Каналов:  2
Разрядность:   1
Битрейт:  5645 кбит/с
Кодек:   DSD64
================================================================================
No seeders - write personal message to M0p94ok. Any questions - support@pro-jazz.com.
Нет сидеров - пишите в личку M0p94ok. Есть вопросы - support@pro-jazz.com
00:12
131
Нет комментариев. Ваш будет первым!