Поиск

1965 Bill Evans Trio - Trio 65 (2020) {Verve, HDTT} [DSD64]

1965 Bill Evans Trio - Trio 65 (2020) {Verve, HDTT} [DSD64]
Дата записи диска:
3 февраля 1965
Место записи:
New York City, NY, USA
Издатель (лейбл):
Битрейт аудио:
lossless

Треклист:

1 Israel 4:45
2 Elsa 4:17
3 Round Midnight 6:38
4 Our Love Is Here To Stay 3:59
5 How My Heart Sings 2:47
6 Who Can I Turn To? 4:50
7 Come Rain Or Come Shine 5:23
8 If You Could See Me Now 4:46

Доп. инфо:

Хотя все восемь выбранных на этом релизе Verve композиций были записаны пианистом Биллом Эвансом в других сессиях, эти исполнения сохраняют свою актуальность. Вместе с басистом Чаком Исраэлсом и барабанщиком Ларри Банкером (его обычное трио 1963-1965 гг.) Эванс играет окончательные версии таких пьес, как "Israel," "How My Heart Sings," "Who Can I Turn To," and "If You Could See Me Now".

Формат записи/Источник записи: [DSD][OF]
Наличие водяных знаков: Нет
Год издания/переиздания диска: 1965/2020
Продолжительность: 00:37:25
Наличие сканов в содержимом раздачи: Буклет PDF

Контейнер: DSF (*.dsf)
Тип рипа: tracks
Разрядность: 64(2,8 MHz/1 Bit)
Формат: DSD
Количество каналов: 2.0

Источник (релизер): wardrobemalfunction (PS³SACD)
https://www.highdeftapetransfers.com/products/bill-evans-trio-trio-65

Лог проверки качества
==============================================
foobar2000 1.4 / Dynamic Range Meter 1.1.1
log date: 2021-01-09 17:30:13
---------------------------------------------------------------------------
Analyzed: Bill Evans Trio / Bill Evans Trio - Trio 65
---------------------------------------------------------------------------
DR            Peak         RMS     Duration        Track
---------------------------------------------------------------------------
DR13    -6.00 dB   -23.00 dB   4:51   01-Israel
DR12  -10.53 dB   -25.52 dB   4:22   02-Elsa
DR13    -8.96 dB   -26.28 dB   6:43   03-Round Midnight
DR14    -7.24 dB   -25.19 dB   4:03   04-Our Love Is Here To Stay
DR12    -9.17 dB   -24.65 dB   2:50   05-How My Heart Sings
DR12  -10.12 dB   -25.30 dB   4:55   06-Who Can I Turn To?
DR13    -8.58 dB   -25.60 dB   5:28   07-Come Rain Or Come Shine
DR13    -9.23 dB   -25.98 dB   5:02   08-If You Could See Me Now
---------------------------------------------------------------------------
Number of tracks: 8
Official DR value: DR13

Samplerate: 2822400 Hz / PCM Samplerate: 176400 Hz
Channels: 2
Bits per sample: 1
Bitrate: 5645 kbps
Codec: DSD64
==============================================
Приватный:
Нет (DHT включён)
Размер:
1.51 Гб (1,620,062,795 байт) » файлов: 15
Участники:
0 раздают, 1 качают (1 участников всего)
Внешние участники:
21 раздают, 7 качают (28 участников всего) [ Обновить ]
No seeders - write personal message to M0p94ok. Нет сидеров - пишите в личку M0p94ok.
15:06
128
Нет комментариев. Ваш будет первым!