Поиск

1968 Bill Evans feat. Eddie Gomez, Jack DeJohnette - Live at Ronnie Scott's (2020) {Resonance} [24-96]

1968 Bill Evans feat. Eddie Gomez, Jack DeJohnette - Live at Ronnie Scott's (2020) {Resonance} [24-96]
Дата записи диска:
июль 1968
Место записи:
Ronnie Scott’s Jazz Club, London, UK
Издатель (лейбл):
Номер по каталогу:
HCD-2046
Битрейт аудио:
lossless
Доп. инфо:

Формат записи/Источник записи: [TR24][OF]
Издание: Remastered
Год издания/переиздания диска: 1968/2020
Жанр: Jazz
Издатель (лейбл): Resonance Records
Продолжительность: 01:39:30
Наличие сканов в содержимом раздачи: Буклет PDF

Контейнер: FLAC (*.flac)
Тип рипа: tracks
Разрядность: 24/96
Количество каналов: 2.0

Источник (релизер): Qobuz

Лог проверки качества
foobar2000 1.4.3 / Dynamic Range Meter 1.1.1
log date: 2021-01-11 06:40:30

--------------------------------------------------------------------------------
Analyzed: Bill Evans / Live at Ronnie Scott's Bill Evans feat. Eddie Gomez, Jack DeJohnette
--------------------------------------------------------------------------------

DR         Peak         RMS     Duration Track
--------------------------------------------------------------------------------
DR7       -3.08 dB   -13.39 dB      4:58 01-A Sleeping Bee
DR8       -2.28 dB   -13.19 dB      3:01 02-You're Gonna Hear From Me
DR8       -2.52 dB   -14.85 dB      4:53 03-Yesterdays
DR8       -2.46 dB   -14.18 dB      4:46 04-Turn Out the Stars
DR8       -2.33 dB   -14.95 dB      5:54 05-My Man's Gone Now
DR8       -2.41 dB   -13.90 dB      4:47 06-Emily (Version 1)
DR9       -2.94 dB   -14.61 dB      4:59 07-Spring is Here
DR9       -1.08 dB   -13.12 dB      5:59 08-Embraceable You
DR9       -1.08 dB   -13.56 dB      4:25 09-For Heaven's Sake
DR9       -2.23 dB   -14.10 dB      6:27 10-Someday My Prince Will Come
DR7       -2.73 dB   -12.96 dB      5:49 11-Quiet Now
DR7       -2.73 dB   -12.81 dB      6:53 12-Round Midnight
DR8       -2.23 dB   -13.72 dB      3:58 13-Stella By Starlight
DR6       -2.23 dB   -12.91 dB      5:24 14-Alfie
DR8       -3.66 dB   -14.65 dB      3:21 15-You're Gonna Hear From Me (Version 2)
DR6       -2.80 dB   -13.02 dB      5:00 16-Very Early
DR8       -1.08 dB   -12.35 dB      4:14 17-Emily (Version 2)
DR8       -1.83 dB   -13.20 dB      4:58 18-Waltz for Debby
DR7       -2.23 dB   -13.50 dB      4:35 19-Autumn Leaves
DR7       -2.74 dB   -13.07 dB      5:20 20-Nardis
--------------------------------------------------------------------------------

Number of tracks:  20
Official DR value: DR8

Samplerate:        96000 Hz
Channels:          2
Bits per sample:   24
Bitrate:           2311 kbps
Codec:             FLAC
================================================================================
No seeders - write personal message to M0p94ok. Any questions - support@pro-jazz.com.
Нет сидеров - пишите в личку M0p94ok. Есть вопросы - support@pro-jazz.com
16:18
141
Нет комментариев. Ваш будет первым!