Вы используете незарегистрированную версию компонента "Вкладки"!

Поиск

2004 Bob Kindred Quartet - Blue Moon (2016) {Venus VHGD-124} [DSD64]

2004 Bob Kindred Quartet - Blue Moon (2016) {Venus VHGD-124} [DSD64]
Стили:
Дата издания диска:
26 июля 2004
Битрейт аудио:
lossless
Доп. инфо:

Формат записи/Источник записи: [SACD-R][OF]
Наличие водяных знаков: Нет
Год издания/переиздания диска: 2004/2016
Продолжительность: 01:10:05
Наличие сканов в содержимом раздачи: Только обложка альбома

Контейнер: ISO (*.iso)
Тип рипа: image
Разрядность: 64 (2,8 MHz/1 Bit)
Формат: DSD
Количество каналов: 2.0

Доп. информация: venusrecords
Источник (релизер): jazzy pic

Лог проверки качества
foobar2000 1.6.2 / Замер динамического диапазона (DR) 1.1.1
Дата отчёта:  2021-01-11 22:14:07

--------------------------------------------------------------------------------
Анализ:   BOB KINDRED QUARTET / Blue Moon
--------------------------------------------------------------------------------

DR         Пики         RMS           Продолжительность трека
--------------------------------------------------------------------------------
DR6       -5.17 дБ   -13.16 дБ      5:55 01-Do Nothin' Till You Hear From Me
DR7       -5.23 дБ   -14.69 дБ      5:14 02-In A Sentimental Mood
DR7       -5.21 дБ   -14.95 дБ      6:01 03-Crazy He Calls Me
DR7       -5.18 дБ   -13.54 дБ      7:07 04-Moon And Sand
DR7       -5.21 дБ   -14.57 дБ      6:12 05-Body And Soul
DR9       -5.34 дБ   -16.44 дБ      6:18 06-The Things We Did Last Summer
DR6       -5.07 дБ   -13.19 дБ      8:17 07-If You Could See Me Now
DR7       -5.00 дБ   -14.63 дБ      6:14 08-Time On My Hands
DR6       -5.11 дБ   -13.09 дБ      7:26 09-Blue Moon
DR7       -5.24 дБ   -14.16 дБ      5:29 10-Warm Valley
DR6       -5.10 дБ   -12.72 дБ      5:49 11-With The Wind And Rain In Your Hair
--------------------------------------------------------------------------------

Количество треков: 11
Реальные значения DR: DR7

Частота:  2822400 Гц / Частота PCM: 352800 Гц
Каналов:  2
Разрядность:   1
Битрейт:  5645 кбит/с
Кодек:   DSD64
================================================================================
Any questions - support@pro-jazz.com. Есть вопросы - support@pro-jazz.com
18:50
192
Нет комментариев. Ваш будет первым!