Поиск

2021 Armel Dupas, Olivier Rousseau & Christophe Piot - Organ Trio (Live) {Armel Dupas} [24-41.1]

2021 Armel Dupas, Olivier Rousseau & Christophe Piot - Organ Trio (Live) {Armel Dupas} [24-41.1]
Стили:
Битрейт аудио:
lossless

Треклист:

01 - Back at the Chicken Shack 06:19
02 - My Favorite Things 07:02
03 - A Night Walk 07:12
04 - Driftin 07:22
05 - Road Song 07:32
06 - Peace 07:10
07 - Along Came Betty 07:52
08 - A Night in Tunisia 06:37
09 - Here's That Rainy Day 07:49
10 - The Cat 06:10

Доп. инфо:

Формат записи/Источник записи: [TR24][OF]
Год издания/переиздания диска: 2021
Издатель (лейбл): Armel Dupas
Продолжительность: 01:11:05
Наличие сканов в содержимом раздачи: Нет

Контейнер: FLAC (*.flac)
Тип рипа: tracks
Разрядность: 24/44,1
Количество каналов: 2.0

Источник (релизер): Qobuz

Лог проверки качества
foobar2000 1.4.3 / Dynamic Range Meter 1.1.1
log date: 2021-01-10 16:23:24

--------------------------------------------------------------------------------
Analyzed: Armel Dupas / Organ Trio (Live)
--------------------------------------------------------------------------------

DR         Peak         RMS     Duration Track
--------------------------------------------------------------------------------
DR8       -0.30 dB   -10.13 dB      6:20 01-Back at the Chicken Shack  (Live)
DR8       -0.30 dB    -9.61 dB      7:03 02-My Favorite Things  (Live)
DR10      -0.30 dB   -15.28 dB      7:13 03-A Night Walk  (Live)
DR8       -0.30 dB   -11.22 dB      7:23 04-Driftin  (Live)
DR9       -0.30 dB   -11.09 dB      7:32 05-Road Song  (Live)
DR12      -0.54 dB   -15.59 dB      7:11 06-Peace  (Live)
DR9       -0.30 dB   -11.38 dB      7:53 07-Along Came Betty  (Live)
DR7       -0.30 dB    -9.41 dB      6:38 08-A Night in Tunisia  (Live)
DR9       -0.30 dB   -12.32 dB      7:50 09-Here's That Rainy Day  (Live)
DR8       -0.30 dB   -10.22 dB      6:10 10-The Cat  (Live)
--------------------------------------------------------------------------------

Number of tracks:  10
Official DR value: DR9

Samplerate:        44100 Hz
Channels:          2
Bits per sample:   24
Bitrate:           1557 kbps
Codec:             FLAC
================================================================================
Приватный:
Нет (DHT включён)
Размер:
785.98 Мб (824,161,410 байт) » файлов: 15
Участники:
1 раздают, 0 качают (1 участников всего)
Внешние участники:
10 раздают, 3 качают (13 участников всего) [ Обновить ]
No seeders - write personal message to M0p94ok. Any questions - support@pro-jazz.com.
Нет сидеров - пишите в личку M0p94ok. Есть вопросы - support@pro-jazz.com
00:17
87
Нет комментариев. Ваш будет первым!