Поиск

2001 One For All - The End Of A Love Affair (2015) {Venus VHGD-66} [DSD64]

2001 One For All - The End Of A Love Affair (2015) {Venus VHGD-66} [DSD64]
Стили:
Дата записи диска:
12 марта 2001
Место записи:
Clinton Studio, New York City, NY, USA
Дата издания диска:
18 декабря 2001
Издатель (лейбл):
Номер по каталогу:
VHGD-66
Битрейт аудио:
lossless
Доп. инфо:

Формат записи/Источник записи: [SACD-R][OF]
Наличие водяных знаков: Нет
Год издания/переиздания диска: 2001/2015
Продолжительность: 00:58:30
Наличие сканов в содержимом раздачи: Только обложка альбома

Контейнер: ISO (*.iso)
Тип рипа: image
Разрядность: 64(2,8 MHz/1 Bit)
Формат: DSD
Количество каналов: 2.0

Доп. информация: venusrecords
Источник (релизер): jazzy pic

Лог проверки качества
foobar2000 1.6.2 / Замер динамического диапазона (DR) 1.1.1
Дата отчёта:  2021-01-12 17:58:03

--------------------------------------------------------------------------------
Анализ:   One For All / THE END OF A LOVE
--------------------------------------------------------------------------------

DR         Пики         RMS           Продолжительность трека
--------------------------------------------------------------------------------
DR9       -3.90 дБ   -14.10 дБ      7:35 01-The End Of A Love Affair
DR9       -4.46 дБ   -15.09 дБ      7:13 02-Stolen Moments
DR7       -4.29 дБ   -13.17 дБ      6:20 03-Corcovado
DR8       -3.75 дБ   -12.95 дБ      8:52 04-How Are You?
DR8       -3.65 дБ   -14.04 дБ      7:22 05-Shinjuku Waltz
DR9       -3.87 дБ   -14.63 дБ      6:05 06-Skylark
DR9       -3.82 дБ   -14.37 дБ      8:53 07-The Eyes Have It
DR8       -3.71 дБ   -13.34 дБ      6:10 08-Street Of Dreams
--------------------------------------------------------------------------------

Количество треков: 8
Реальные значения DR: DR8

Частота:  2822400 Гц / Частота PCM: 352800 Гц
Каналов:  2
Разрядность:   1
Битрейт:  5645 кбит/с
Кодек:   DSD64
================================================================================
No seeders - write personal message to M0p94ok. Any questions - support@pro-jazz.com.
Нет сидеров - пишите в личку M0p94ok. Есть вопросы - support@pro-jazz.com
11:24
151
Нет комментариев. Ваш будет первым!