Поиск

2019 Run Logan Run - Kōan {Weizen Baum WZB004} [24-44.1]

2019 Run Logan Run - Kōan {Weizen Baum WZB004} [24-44.1]
Стили:
Номер по каталогу:
WZB004
Битрейт аудио:
lossless

Треклист:

1. Spiritual 08:58
2. Kōan II 09:25
3. 33 Hours 06:19
4. Kōan IV 05:08
5. Beneath The Chestnut Tree 09:42

Доп. инфо:

Формат записи/Источник записи: [TR24][OF]
Наличие водяных знаков: Нет
Год издания/переиздания диска: 2019
Издатель (лейбл): Weizen Baum
Продолжительность: 00:39:33
Наличие сканов в содержимом раздачи: Только обложка альбома

Контейнер: FLAC (*.flac)
Тип рипа: tracks
Разрядность: 24/44,1
Формат: PCM
Количество каналов: 2.0

Источник (релизер): jozas

Лог проверки качества
foobar2000 1.6.2 / Dynamic Range Meter 1.1.1
log date: 2021-01-12 18:06:53

--------------------------------------------------------------------------------
Analyzed: Run Logan Run / Kōan
--------------------------------------------------------------------------------

DR         Peak         RMS     Duration Track
--------------------------------------------------------------------------------
DR7       -0.20 dB   -11.21 dB      8:58 01-Spiritual
DR8       -0.20 dB   -12.37 dB      9:25 02-Kōan II
DR8       -0.20 dB   -12.25 dB      6:19 03-33 Hours
DR10      -0.20 dB   -15.31 dB      5:08 04-Kōan IV
DR7       -0.20 dB   -10.99 dB      9:42 05-Beneath The Chestnut Tree
--------------------------------------------------------------------------------

Number of tracks:  5
Official DR value: DR8

Samplerate:        44100 Hz
Channels:          2
Bits per sample:   24
Bitrate:           1587 kbps
Codec:             FLAC
================================================================================
Приватный:
Нет (DHT включён)
Размер:
423.13 Мб (443,679,428 байт) » файлов: 7
Участники:
0 раздают, 0 качают (0 участников всего)
Внешние участники:
3 раздают, 1 качают (4 участников всего) [ Обновить ]
No seeders - write personal message to M0p94ok. Any questions - support@pro-jazz.com.
Нет сидеров - пишите в личку M0p94ok. Есть вопросы - support@pro-jazz.com
18:02
99
Нет комментариев. Ваш будет первым!