Поиск

1995 Bill Crow Quartet - From Birdland To Broadway (2015) {Venus VHGD-113} [DSD64]

1995 Bill Crow Quartet - From Birdland To Broadway (2015) {Venus VHGD-113} [DSD64]
Дата записи диска:
19 ноября - 20 ноября 1995
Место записи:
Van Gelder Recording Studio, Englewood Cliffs, New Jersey, USA
Издатель (лейбл):
Номер по каталогу:
VHGD-113
Битрейт аудио:
lossless

Треклист:

01. From Birdland to Broadway  05:16
02. Share a Key  05:26
03. Okay, Bug  05:46
04. News from Blueport  04:02
05. Autumn Leaves  05:53
06. Fools Rush In  07:18
07. Just Friends  06:02
08. Tricrotism  04:59
09. My Funny Valentine  08:11
10. Night Lights  04:03
11. Broadway  02:52

Доп. инфо:

Эта редкая возможность послушать ветерана баса Билла Кроу в качестве лидера представилась в 1995 году, чтобы служить «музыкальным сопровождением» японского перевода его автобиографии From Birdland to Broadway, хотя компакт-диск был выпущен только в Японии. В компанию к Кроу, который является опытным солистом, присоединились ветеран тенор-саксофона Кармен Легжио, гитарист Джо Кон (сын легенды тенор-саксофона Эла Кона) и барабанщик Дэвид Джонс. Упаковка немного сбивает с толку: на внешней обложке всего восемь треков, но на самом деле их всего 11 на этом диске, который, очевидно, одновременно был выпущен на LP. Кроу начинает с двух оригиналов. Заглавный трек представляет собой запоминающийся блюз с резким ударным ритмом и прекрасными соло Кона и Легжио, а "Share a Key" - вкусная босса-нова. Кроу также возрождает старую песню "News From Blueport", которую басист написал в начале 60-х, когда был участником квартета Джерри Маллигана; этот незабываемый блюз до сих пор вдохновляет музыкантов сиять. В дополнение к нескольким приятным аранжировкам стандартов, тонкое озвучивание Кроу "Tricotism" Оскара Петтифорда и недооцененная баллада Маллигана "Night Lights" завершают этот настоятельно рекомендуемый релиз.

Формат записи/Источник записи: [SACD-R][OF]
Наличие водяных знаков: Нет
Год издания/переиздания диска: 1995/2015
Продолжительность: 00:59:52
Наличие сканов в содержимом раздачи: Только обложка альбома

Контейнер: ISO (*.iso)
Тип рипа: image
Разрядность: 64(2,8 MHz/1 Bit)
Формат: DSD
Количество каналов: 2.0

Доп. информация: venusrecords
Источник (релизер): jazzy pic

Лог проверки качества
foobar2000 1.6.2 / Замер динамического диапазона (DR) 1.1.1
Дата отчёта:  2021-01-11 11:18:40

--------------------------------------------------------------------------------
Анализ:   BILL CROW QUARTET / From Birdland To Broadway
--------------------------------------------------------------------------------

DR         Пики         RMS           Продолжительность трека
--------------------------------------------------------------------------------
DR7       -4.30 дБ   -12.85 дБ      5:16 01-From Birdland To Broadway
DR8       -4.22 дБ   -13.40 дБ      5:26 02-Share A Key
DR8       -4.18 дБ   -13.96 дБ      5:48 03-Okay, Bug
DR7       -4.07 дБ   -13.42 дБ      4:02 04-News From Blueport
DR8       -4.20 дБ   -13.32 дБ      5:53 05-Autumn Leaves
DR7       -4.25 дБ   -13.18 дБ      7:17 06-Fools Rush In
DR8       -4.27 дБ   -13.88 дБ      6:00 07-Just Friends
DR7       -4.27 дБ   -12.82 дБ      4:59 08-Tricrotism
DR7       -4.25 дБ   -12.65 дБ      8:15 09-My Funny Valentine
DR7       -4.34 дБ   -13.07 дБ      4:02 10-Night Lights
DR8       -4.20 дБ   -13.55 дБ      2:55 11-Broadway
--------------------------------------------------------------------------------

Количество треков: 11
Реальные значения DR: DR7

Частота:  2822400 Гц / Частота PCM: 352800 Гц
Каналов:  2
Разрядность:   1
Битрейт:  5645 кбит/с
Кодек:   DSD64
================================================================================
Приватный:
Нет (DHT включён)
Размер:
2.42 Гб (2,603,397,800 байт) » файлов: 5
Участники:
0 раздают, 1 качают (1 участников всего)
Внешние участники:
--- [ Обновить ]
No seeders - write personal message to M0p94ok. Any questions - support@pro-jazz.com.
Нет сидеров - пишите в личку M0p94ok. Есть вопросы - support@pro-jazz.com
13:53
94
Нет комментариев. Ваш будет первым!