Вы используете незарегистрированную версию компонента "Вкладки"!

Поиск

2013 Samuel Blaser & Consort in Motion - A Mirror To Machaut {Songlines} [24-88.2]

2013 Samuel Blaser & Consort in Motion - A Mirror To Machaut {Songlines} [24-88.2]
Стили:
Дата записи диска:
19 февраля - 20 февраля 2013
Место записи:
Studio De Meudon, France
Дата издания диска:
13 августа 2013
Номер по каталогу:
SGL 1604-2
Носитель:
WEB
Формат:
PCM
Тип рипа:
tracks
Контейнер:
FLAC (*.flac)
Количество каналов:
2.0
Разрядность/ЧД:
24/88,2
Битрейт аудио:
lossless
Время звучания:
00:56:51
Наличие сканов:
буклет pdf
Страна-производитель диска (релиза):
Canada
Релизёр (источник):
M0p94ok
Лог проверки качества
foobar2000 1.6.2 / Dynamic Range Meter 1.1.1
log date: 2021-03-16 18:19:05

--------------------------------------------------------------------------------
Analyzed: Samuel Blaser Consort in Motion / A Mirror To Machaut
--------------------------------------------------------------------------------

DR         Peak         RMS     Duration Track
--------------------------------------------------------------------------------
DR12      -0.01 dB   -16.09 dB      7:29 01-Hymn
DR11      -1.04 dB   -16.87 dB      1:39 02-Douce dame jolie
DR13      -1.50 dB   -19.44 dB      5:57 03-Saltarello
DR9       -0.01 dB   -10.95 dB      3:08 04-Dame, se vous m'estes lointeinne
DR11      -0.01 dB   -14.46 dB      6:11 05-Color
DR13      -5.08 dB   -25.55 dB      4:20 06-Cantus planus
DR12      -2.50 dB   -20.11 dB      2:10 07-De fortune me doy pleindre et loer
DR14      -1.67 dB   -19.43 dB      8:16 08-Bohemia
DR14      -0.15 dB   -17.72 dB      5:23 09-Linea
DR12      -0.06 dB   -14.89 dB      6:07 10-Introït
DR11      -0.18 dB   -16.24 dB      5:35 11-Complainte: Tels rit au main qui au soir pleure
--------------------------------------------------------------------------------

Number of tracks:  11
Official DR value: DR12

Samplerate:        88200 Hz
Channels:          2
Bits per sample:   24
Bitrate:           2429 kbps
Codec:             FLAC
================================================================================
Any questions - support@pro-jazz.com. Есть вопросы - support@pro-jazz.com
19:29
140
Нет комментариев. Ваш будет первым!