Поиск

1976 Esther Phillips - Capricorn Princess (2017) {CTI, King} [24-192]

1976 Esther Phillips - Capricorn Princess (2017) {CTI, King} [24-192]
Стили:
Издатель (лейбл):
Битрейт аудио:
lossless

Треклист:

01 - Magic 03:02
02 - Leave Yourself To Sickness 03:39
03 - The Binding Of Love 03:46
04 - Candy 05:15
05 - Beautiful Friendship 02:54
06 - Flight Of Love 03:55
07 - All the Way Down 06:19
08 - Dream 03:51

Доп. инфо:

Формат записи/Источник записи: [TR24][OF]
Издание: Remastered
Год издания/переиздания диска: 1976/2017
Продолжительность: 00:32:41
Наличие сканов в содержимом раздачи: Нет

Контейнер: FLAC (*.flac)
Тип рипа: tracks
Разрядность: 24/192
Количество каналов: 2.0

Источник (релизер): King Records

Лог проверки качества
foobar2000 1.4.3 / Dynamic Range Meter 1.1.1
log date: 2020-12-29 16:51:05

--------------------------------------------------------------------------------
Analyzed: Esther Phillips / Capricorn Princess
--------------------------------------------------------------------------------

DR         Peak         RMS     Duration Track
--------------------------------------------------------------------------------
DR11      -0.05 dB   -12.96 dB      3:03 01-Magic's In The Air
DR12      -0.05 dB   -14.73 dB      3:40 02-I Haven't Got Anything Better To Do
DR12      -0.05 dB   -14.18 dB      3:46 03-Boy, I Really Tied One On
DR12      -0.05 dB   -14.24 dB      5:16 04-Candy
DR11      -2.29 dB   -16.53 dB      2:55 05-A Beautiful Friendship
DR12      -0.61 dB   -14.88 dB      3:56 06-Higher & Higher
DR13      -0.89 dB   -15.89 dB      6:20 07-All The Way Down
DR11      -0.30 dB   -13.24 dB      3:52 08-Dream
--------------------------------------------------------------------------------

Number of tracks:  8
Official DR value: DR12

Samplerate:        192000 Hz
Channels:          2
Bits per sample:   24
Bitrate:           5800 kbps
Codec:             FLAC
================================================================================
Приватный:
Нет (DHT включён)
Размер:
1.30 Гб (1,400,410,476 байт) » файлов: 13
Участники:
0 раздают, 0 качают (0 участников всего)
Внешние участники:
3 раздают, 1 качают (4 участников всего) [ Обновить ]
No seeders - write personal message to M0p94ok. Any questions - support@pro-jazz.com.
Нет сидеров - пишите в личку M0p94ok. Есть вопросы - support@pro-jazz.com
21:53
132
Нет комментариев. Ваш будет первым!