Поиск

1979 The Players Association - Turn The Music Up! (2020) {Craft} [24-96]

1979 The Players Association - Turn The Music Up! (2020) {Craft} [24-96]
Стили:
Битрейт аудио:
lossless

Треклист:

1. Turn The Music Up! 6:45
2. The Closer I Get To You 4:38
3. Everybody Dance (Clap Your Hands) 6:47
4. I Wish 5:42
5. More Than A Little Bit 6:23
6. Ride The Groove 6:42

Доп. инфо:

Формат записи/Источник записи: [TR24][OF]
Наличие водяных знаков: Нет
Издание: Remastered
Год издания/переиздания диска: 1979/2020
Продолжительность: 00:37:14
Наличие сканов в содержимом раздачи: Только обложка альбома

Контейнер: FLAC (*.flac)
Тип рипа: tracks
Разрядность: 24/96
Формат: PCM
Количество каналов: 2.0

Доп. информация: prostudiomasters.com
Источник (релизер): WEB

Лог проверки качества
foobar2000 1.6.2 / Замер динамического диапазона (DR) 1.1.1
Дата отчёта:  2021-01-13 18:49:12

--------------------------------------------------------------------------------
Анализ:   The Players Association / Turn The Music Up! (Remastered)
--------------------------------------------------------------------------------

DR         Пики         RMS           Продолжительность трека
--------------------------------------------------------------------------------
DR14      -0.28 дБ   -16.16 дБ      6:49 01-Turn The Music Up!
DR14      -0.30 дБ   -16.78 дБ      4:41 02-The Closer I Get To You
DR15      -0.29 дБ   -16.95 дБ      6:51 03-Everybody Dance (Clap Your Hands)
DR15      -0.29 дБ   -17.06 дБ      5:45 04-I Wish
DR16      -0.29 дБ   -17.73 дБ      6:26 05-More Than A Little Bit
DR15      -0.29 дБ   -16.91 дБ      6:42 06-Ride The Groove
--------------------------------------------------------------------------------

Количество треков: 6
Реальные значения DR: DR15

Частота:  96000 Гц
Каналов:  2
Разрядность:   24
Битрейт:  3207 кбит/с
Кодек:   FLAC
================================================================================
Приватный:
Нет (DHT включён)
Размер:
831.17 Мб (871,547,679 байт) » файлов: 8
Участники:
3 раздают, 1 качают (4 участников всего)
Внешние участники:
5 раздают, 1 качают (6 участников всего) [ Обновить ]
No seeders - write personal message to M0p94ok. Нет сидеров - пишите в личку M0p94ok.
15:46
78
Нет комментариев. Ваш будет первым!