Поиск

1959 Chet Baker - In Milan (2019) {RevOla} [24-44.1]

1959 Chet Baker - In Milan (2019) {RevOla} [24-44.1]
Дата записи диска:
25 сентября 1959 - 6 октября 1959
Место записи:
Milan, Italy
Издатель (лейбл):
Носитель:
WEB
Формат:
PCM
Тип рипа:
tracks
Контейнер:
FLAC (*.flac)
Количество каналов:
2.0
Разрядность/ЧД:
24/44,1
Битрейт аудио:
lossless
Время звучания:
00:42:37
Наличие сканов:
только обложка
Наличие водяных знаков:
нет
Страна-производитель диска (релиза):
USA
Релизёр (источник):
M0p94ok

Треклист:

1. Lady Bird (Remastered)  04:46
2. Cheryl Blues (Remastered)  05:00
3. Tune Up (Remastered)  05:18
4. Line For Lyons (Remastered)  07:47
5. Pent Up House (Remastered)  05:00
6. Look For The Silver Lining (Remastered)  04:35
7. Indian Summer (Remastered)  05:15
8. My Old Flame (Remastered)  04:56

Лог проверки качества
foobar2000 1.3.16 / Dynamic Range Meter 1.1.1
log date: 2019-05-12 15:24:25

--------------------------------------------------------------------------------
Analyzed: Chet Baker / In Milan 1959
--------------------------------------------------------------------------------

DR         Peak         RMS     Duration Track
--------------------------------------------------------------------------------
DR13      -7.78 dB   -23.33 dB      4:46 01-Lady Bird
DR12      -8.15 dB   -23.41 dB      5:01 02-Cheryl Blues
DR13      -8.32 dB   -24.36 dB      5:19 03-Tune Up
DR14      -8.77 dB   -25.15 dB      7:47 04-Line For Lyons
DR13      -7.65 dB   -23.68 dB      5:01 05-Pent Up House
DR12      -9.51 dB   -24.65 dB      4:36 06-Look For The Silver Lining
DR11      -9.82 dB   -24.67 dB      5:16 07-Indian Summer
DR13     -10.21 dB   -27.54 dB      4:56 08-My Old Flame
--------------------------------------------------------------------------------

Number of tracks:  8
Official DR value: DR13

Samplerate:        44100 Hz
Channels:          2
Bits per sample:   24
Bitrate:           649 kbps
Codec:             FLAC
================================================================================
Приватный:
Нет (DHT включён)
Размер:
213.07 Мб (223,425,326 байт) » файлов: 10
Участники:
6 раздают, 1 качают (7 участников всего)
Внешние участники:
--- [ Обновить ]
No seeders - write personal message to M0p94ok. Any questions - support@pro-jazz.com.
Нет сидеров - пишите в личку M0p94ok. Есть вопросы - support@pro-jazz.com
16:31
103
Нет комментариев. Ваш будет первым!