Поиск

2015 Brian Simpson - Out Of A Dream {Shanachie} [24-44.1]

2015 Brian Simpson - Out Of A Dream {Shanachie} [24-44.1]
Место записи:
JLajMuzic Studio, Baltimore, MD; Night Flight Studios, Ft. Washington, MD; Studio B, Los Angeles, CA
Издатель (лейбл):
Номер по каталогу:
SH 5427
Носитель:
WEB
Формат:
PCM
Тип рипа:
tracks
Контейнер:
FLAC (*.flac)
Количество каналов:
2.0
Разрядность/ЧД:
24/44,1
Битрейт аудио:
lossless
Время звучания:
00:42:37
Наличие сканов:
буклет pdf
Наличие водяных знаков:
да
Страна-производитель диска (релиза):
USA
Релизёр (источник):
M0p94ok

Треклист:

01. One Of A Kind  04:26
02. Out Of A Dream  04:01
03. When I Say Your Name  03:54
04. Sky Watcher  04:03
05. Just One Wish  04:14
06. San Lorenzo  04:48
07. Let's Get Away  04:11
08. Rio Sway  03:53
09. Her Eyes  04:57
10. Nightfall  04:17

Лог проверки качества
foobar2000 1.6.2 / Dynamic Range Meter 1.1.1
log date: 2021-03-18 14:36:21

--------------------------------------------------------------------------------
Analyzed: Brian Simpson / Out Of A Dream
--------------------------------------------------------------------------------

DR         Peak         RMS     Duration Track
--------------------------------------------------------------------------------
DR8       -0.20 dB    -9.77 dB      4:26 01-One Of A Kind
DR8       -0.20 dB    -9.79 dB      4:00 02-Out Of A Dream
DR8       -0.20 dB    -9.49 dB      3:53 03-When I Say Your Name
DR8       -0.20 dB    -9.66 dB      4:02 04-Sky Watcher
DR8       -0.20 dB    -9.76 dB      4:14 05-Just One Wish
DR8       -0.20 dB    -8.86 dB      4:48 06-San Lorenzo
DR9       -0.20 dB   -10.72 dB      4:10 07-Let's Get Away
DR9       -0.20 dB    -9.87 dB      3:52 08-Rio Sway
DR5       -0.20 dB    -8.49 dB      4:57 09-Her Eyes
DR10      -0.20 dB   -11.36 dB      4:16 10-Nightfall
--------------------------------------------------------------------------------

Number of tracks:  10
Official DR value: DR8

Samplerate:        44100 Hz
Channels:          2
Bits per sample:   24
Bitrate:           1569 kbps
Codec:             FLAC
================================================================================
Приватный:
Нет (DHT включён)
Размер:
487.22 Мб (510,891,050 байт) » файлов: 13
Участники:
6 раздают, 0 качают (6 участников всего)
Внешние участники:
--- [ Обновить ]
No seeders - write personal message to M0p94ok. Нет сидеров - пишите в личку M0p94ok.
15:51
78
Нет комментариев. Ваш будет первым!