Поиск

2020 Roscoe Weathers - I'll Remember {Jazzman} [24-96]

2020 Roscoe Weathers - I'll Remember {Jazzman} [24-96]
Стили:
Дата издания диска:
18 сентября 2020
Номер по каталогу:
JMAN-123
Битрейт аудио:
lossless
Доп. инфо:

На каждое знаменитое имя в джазе, соул и родственной музыке приходится, вероятно, еще 1000 музыкантов, которые обладали всем талантом и потенциалом, но для которых широкое признание оставалось неуловимым. Роско Уэзерс - одна из таких фигур, джазмен, который зарабатывал свою репутацию горьким опытом сайдмена в дымных клубах от Мемфиса до Сиэтла, прежде чем окончательно обосноваться в Лос-Анджелесе. Он записал значительное количество музыки в течение 1960-х годов, но так и не нашел ни малейшего коммерческого признания, ни успеха, который приходит с этим.

Лишь несколько самых маленьких звукозаписывающих лейблов обратили на него своё внимание, но большую часть своего материала Уэзерс выпустил сам. Звукозаписывающая индустрия проигнорировала шестьдесят лет его творчества, поэтому мы рады выпустить этот первый полноформатный альбом его музыки в качестве первой попытки исправить эту историческую ошибку.

Мульти-инструменталист, Уэзерс в основном играл на флейте в своих записях. Музыка здесь охватывает период 1960-х годов и переходит от непринужденного джазового стиля битника к тяжелым ударным тренировкам с афро-латинским влиянием. Как обычно с Jazzman, мы не только глубоко копали, чтобы раскопать музыку Уэзерса, но также его биографию и биографические данные, впервые пролив заслуженный свет на эту загадочную и в значительной степени неизвестную фигуру.

Формат записи/Источник записи: [TR24][OF]
Наличие водяных знаков: Нет
Год издания/переиздания диска: 2020
Издатель (лейбл): Jazzman
Продолжительность: 00:39:31
Наличие сканов в содержимом раздачи: Только обложка альбома

Контейнер: FLAC (*.flac)
Тип рипа: tracks
Разрядность: 24/96
Формат: PCM
Количество каналов: 2.0

Доп. информация: jazzmanalbums
Источник (релизер): WEB

Лог проверки качества
foobar2000 1.6.2 / Замер динамического диапазона (DR) 1.1.1
Дата отчёта:  2021-01-13 22:10:17

--------------------------------------------------------------------------------
Анализ:   Roscoe Weathers / I'll Remember
--------------------------------------------------------------------------------

DR         Пики         RMS           Продолжительность трека
--------------------------------------------------------------------------------
DR12      -0.22 дБ   -14.44 дБ      4:46 01-Poem for Anna
DR9       -0.99 дБ   -11.31 дБ      2:27 02-Penny Whistle Montuna
DR11      -2.10 дБ   -14.95 дБ      2:32 03-Yours Alone
DR12      -0.10 дБ   -14.80 дБ      2:58 04-Afro Latin Junto II
DR10      -0.85 дБ   -12.92 дБ      4:18 05-Root Flute
DR11      -0.60 дБ   -15.36 дБ      2:34 06-Blue Flute
DR11      -1.89 дБ   -15.15 дБ      3:18 07-The Bob White Bird
DR10      -1.89 дБ   -13.82 дБ      2:45 08-Echoes
DR13      -0.17 дБ   -16.27 дБ      2:29 09-Dandelion Wine
DR9       -1.28 дБ   -13.56 дБ      2:19 10-Blue Cha Cha
DR14      -0.21 дБ   -15.79 дБ      9:06 11-I'll Remember Clover
--------------------------------------------------------------------------------

Количество треков: 11
Реальные значения DR: DR11

Частота:  96000 Гц
Каналов:  2
Разрядность:   24
Битрейт:  1471 кбит/с
Кодек:   FLAC
================================================================================
No seeders - write personal message to M0p94ok. Any questions - support@pro-jazz.com.
Нет сидеров - пишите в личку M0p94ok. Есть вопросы - support@pro-jazz.com
16:29
116
Нет комментариев. Ваш будет первым!