Поиск

1976 Rudolph Johnson - Time and Space (2020) {Ovation} [24-96]

1976 Rudolph Johnson - Time and Space (2020) {Ovation} [24-96]
Стили:
Номер по каталогу:
OV-1805
Битрейт аудио:
lossless
Доп. инфо:

Формат записи/Источник записи: [TR24][OF]
Издание: Remastered
Год издания/переиздания диска: 1976/2020
Издатель (лейбл): Ovation Records
Продолжительность: 00:52:10
Наличие сканов в содержимом раздачи: Нет

Контейнер: FLAC (*.flac)
Тип рипа: tracks
Разрядность: 24/96
Количество каналов: 2.0

Источник (релизер): HIGHRESAUDIO

Лог проверки качества
foobar2000 1.6.2 / Dynamic Range Meter 1.1.1
log date: 2020-11-25 09:20:40

--------------------------------------------------------------------------------
Analyzed: Rudolph Johnson / Time and Space
--------------------------------------------------------------------------------

DR         Peak         RMS     Duration Track
--------------------------------------------------------------------------------
DR13      -1.22 dB   -16.34 dB      3:20 01-Devon Jean
DR14      -1.23 dB   -17.57 dB      7:17 02-Time And Space
DR13      -1.22 dB   -17.86 dB      8:10 03-Spring Rain
DR13      -1.22 dB   -16.97 dB      7:26 04-Fonda
DR13      -1.22 dB   -16.61 dB      5:05 05-Sylvia Ann
DR14      -1.22 dB   -17.99 dB      6:41 06-Mr T.J.
DR14      -1.22 dB   -16.47 dB      6:36 07-Dishwa
DR13      -1.22 dB   -16.38 dB      7:37 08-The Highest Pleasure
--------------------------------------------------------------------------------

Number of tracks:  8
Official DR value: DR13

Samplerate:        96000 Hz
Channels:          2
Bits per sample:   24
Bitrate:           2697 kbps
Codec:             FLAC
================================================================================
No seeders - write personal message to M0p94ok. Any questions - support@pro-jazz.com.
Нет сидеров - пишите в личку M0p94ok. Есть вопросы - support@pro-jazz.com
17:16
102
Нет комментариев. Ваш будет первым!