Поиск

2004 Chano Dominguez Trio - Con Alma (2016) {Venus VHGD-144} [DSD64]

2004 Chano Dominguez Trio - Con Alma (2016) {Venus VHGD-144} [DSD64]
Дата записи диска:
28 августа 2003
Место записи:
Avatar Studios, New York City, NY, USA
Издатель (лейбл):
Номер по каталогу:
VHGD-144
Битрейт аудио:
lossless

Треклист:

01. La Tarara  04:48
02. No Me Platiquez Mas  06:02
03. How About You?  05:27
04. Dolphin Dance  05:51
05. Con Alma  05:34
06. El Toro Y La Luna  07:49
07. It Could Happen to You  07:25
08. Hello Bolinas  07:42
09. Jure  07:19
10. Speak Low  06:23
11. Darn That Dream  05:59

Доп. инфо:

Формат записи/Источник записи: [SACD-R][OF]
Наличие водяных знаков: Нет
Год издания/переиздания диска: 2003/2016
Продолжительность: 01:09:39
Наличие сканов в содержимом раздачи: Только обложка альбома

Контейнер: ISO (*.iso)
Тип рипа: image
Разрядность: 64(2,8 MHz/1 Bit)
Формат: DSD
Количество каналов: 2.0

Доп. информация: venusrecords
Источник (релизер): jazzy pic

Лог проверки качества
foobar2000 1.6.2 / Замер динамического диапазона (DR) 1.1.1
Дата отчёта:  2021-01-14 20:17:24

--------------------------------------------------------------------------------
Анализ:   CHANO DOMINGUEZ TRIO / Con Alma
--------------------------------------------------------------------------------

DR         Пики         RMS           Продолжительность трека
--------------------------------------------------------------------------------
DR6       -4.75 дБ   -12.40 дБ      4:44 01-La Tarara
DR7       -4.74 дБ   -14.12 дБ      5:59 02-No Me Platiques Mas
DR6       -4.97 дБ   -12.58 дБ      5:23 03-How About You?
DR7       -4.86 дБ   -13.73 дБ      5:46 04-Dolphin Dance
DR7       -5.06 дБ   -13.96 дБ      5:30 05-Con Alma
DR7       -4.70 дБ   -13.85 дБ      7:46 06-El Toro Y La Luna
DR7       -4.62 дБ   -13.64 дБ      7:20 07-It Could Happen To You
DR8       -5.03 дБ   -16.17 дБ      7:38 08-Hullo Bolinas
DR7       -5.00 дБ   -13.21 дБ      7:14 09-Jure
DR7       -4.97 дБ   -13.31 дБ      6:18 10-Speak Low
DR8       -5.03 дБ   -14.74 дБ      5:59 11-Darn That Dream
--------------------------------------------------------------------------------

Количество треков: 11
Реальные значения DR: DR7

Частота:  2822400 Гц / Частота PCM: 352800 Гц
Каналов:  2
Разрядность:   1
Битрейт:  5645 кбит/с
Кодек:   DSD64
================================================================================
Приватный:
Нет (DHT включён)
Размер:
2.83 Гб (3,040,786,507 байт) » файлов: 5
Участники:
3 раздают, 0 качают (3 участников всего)
Внешние участники:
7 раздают, 2 качают (9 участников всего) [ Обновить ]
No seeders - write personal message to M0p94ok. Нет сидеров - пишите в личку M0p94ok.
20:40
94
Нет комментариев. Ваш будет первым!