Поиск

1980 The Players - Wonderful Guys (2000) {Sony} [DSD64]

1980 The Players - Wonderful Guys (2000) {Sony} [DSD64]
Стили:
Издатель (лейбл):
Номер по каталогу:
SRGL612
Битрейт аудио:
lossless
Доп. инфо:

Формат записи/Источник записи: [SACD-R][OF]
Наличие водяных знаков: Нет
Год издания/переиздания диска: 1980/2000
Продолжительность: 00:43:55
Наличие сканов в содержимом раздачи: Только обложка альбома

Контейнер: ISO (*.iso)
Тип рипа: image
Разрядность: 64(2,8 MHz/1 Bit)
Формат: DSD
Количество каналов: 2.0

www.hraudio.net
Источник (релизер): jazzy pic

Лог проверки качества
foobar2000 1.6.2 / Замер динамического диапазона (DR) 1.1.1
Дата отчёта:  2021-01-13 17:40:37

--------------------------------------------------------------------------------
Анализ:   ? / ?
--------------------------------------------------------------------------------

DR         Пики         RMS           Продолжительность трека
--------------------------------------------------------------------------------
DR13      -4.95 дБ   -20.67 дБ      5:46 01-SECOND SIGHT
DR13      -5.35 дБ   -20.74 дБ      4:51 02-WONDERFUL GUY
DR14      -5.46 дБ   -21.04 дБ      5:46 03-TOUCH OF THE RAINBOW
DR12      -6.07 дБ   -20.56 дБ      4:25 04-SLUSH
DR16      -7.76 дБ   -28.82 дБ      2:15 05-ROMANCE
DR14      -4.37 дБ   -21.37 дБ      6:24 06-SIRIUS
DR16      -7.70 дБ   -26.54 дБ      5:05 07-MIDNIGHT MELLOW
DR13      -5.55 дБ   -21.78 дБ      6:31 08-FASCINATING GLANCE
DR10     -14.90 дБ   -27.03 дБ      2:51 09-PEACEFUL SLEEP
--------------------------------------------------------------------------------

Количество треков: 9
Реальные значения DR: DR13

Частота:  2822400 Гц / Частота PCM: 352800 Гц
Каналов:  2
Разрядность:   1
Битрейт:  5645 кбит/с
Кодек:   DSD64
================================================================================
No seeders - write personal message to M0p94ok. Any questions - support@pro-jazz.com.
Нет сидеров - пишите в личку M0p94ok. Есть вопросы - support@pro-jazz.com
22:36
130
Нет комментариев. Ваш будет первым!