Вы используете незарегистрированную версию компонента "Вкладки"!

Поиск

2020 Don Grusin - Out Of Thin Air {Octave OCT-0001} [DST64]

2020 Don Grusin - Out Of Thin Air {Octave OCT-0001} [DST64]
Дата записи диска:
29 февраля 2020
Место записи:
Moose Sound, Poncha Springs, CO.
Битрейт аудио:
lossless
Доп. инфо:

Формат записи/Источник записи: [SACD-R][OF]
Наличие водяных знаков: Нет
Год издания/переиздания диска: 2020
Продолжительность: 01:10:18
Наличие сканов в содержимом раздачи: Только обложка альбома

Контейнер: ISO (*.iso)
Тип рипа: image
Разрядность: 64(2,8 MHz/1 Bit)
Формат: DST64
Количество каналов: 5.0, 2.0

Octave Records OCT-0001 (2020)
SACD rip via PS3 to ISO (3.31 GB)
Recorded and Mixed at Moose Sound, Poncha Springs, CO. on February 29, 2020, by Robert Friedrich, Five/Four Productions, Ltd.
Edited and Mastered by Gus Skinas, Octave Records, PS
pure one-bit Direct Stream Digital® (DSD) recording
Источник (релизер): KingCrim (PS³SACD)
https://www.psaudio.com/products/out-of-thin-air/#tab-recording

Лог проверки качества
foobar2000 1.3.13 / Замер динамического диапазона (DR) 1.1.1
Дата отчёта:  2020-11-27 19:53:52

--------------------------------------------------------------------------------
Анализ:   Don Grusin at Moose Sound / Out of Thin Air
--------------------------------------------------------------------------------

DR         Пики         RMS           Продолжительность трека
--------------------------------------------------------------------------------
DR14      -5.94 дБ   -24.12 дБ      3:44 01-Classical September 18, 2019
DR15      -6.63 дБ   -25.71 дБ      3:42 02-Carйncia
DR15      -4.24 дБ   -24.58 дБ     11:52 03-Hermano Hidalgo
DR14      -6.49 дБ   -24.96 дБ      6:11 04-The Last Train
DR14      -8.70 дБ   -26.36 дБ      2:02 05-2-Minute Study in E
DR14      -4.82 дБ   -23.95 дБ      6:42 06-Willow Dance
DR13      -7.83 дБ   -25.11 дБ      3:34 07-When Last We Spoke
DR13      -6.44 дБ   -24.42 дБ      3:10 08-Grusin Likes Gershwin
DR14      -4.67 дБ   -23.68 дБ      4:55 09-Self-Quarantine
DR15      -5.91 дБ   -24.97 дБ      7:30 10-Jam Suite #1 - Keyroes
DR15      -6.91 дБ   -25.43 дБ      8:13 11-Jam Suite #2 - Colorado Peach Jam
DR16      -2.41 дБ   -24.61 дБ      8:38 12-So Nan Desu
--------------------------------------------------------------------------------

Количество треков: 12
Реальные значения DR: DR14

Частота:   2822400 Гц / Частота PCM: 352800 Гц
Каналов:   5
Разрядность:   24
Битрейт:   14112 кбит/с
Кодек:   DST64
================================================================================

--------------------------------------------------------------------------------
Анализ:   Don Grusin at Moose Sound / Out of Thin Air
--------------------------------------------------------------------------------

DR         Пики         RMS           Продолжительность трека
--------------------------------------------------------------------------------
DR13      -7.23 дБ   -22.60 дБ      3:44 01-Classical September 18, 2019
DR15      -5.45 дБ   -24.72 дБ      3:42 02-Carйncia
DR15      -3.76 дБ   -23.34 дБ     11:52 03-Hermano Hidalgo
DR15      -6.52 дБ   -23.97 дБ      6:11 04-The Last Train
DR14      -7.72 дБ   -24.92 дБ      2:02 05-2-Minute Study in E
DR13      -6.29 дБ   -22.03 дБ      6:42 06-Willow Dance
DR13      -6.54 дБ   -23.11 дБ      3:34 07-When Last We Spoke
DR14      -5.51 дБ   -23.74 дБ      3:10 08-Grusin Likes Gershwin
DR12      -6.19 дБ   -21.24 дБ      4:55 09-Self-Quarantine
DR15      -5.17 дБ   -23.81 дБ      7:30 10-Jam Suite #1 - Keyroes
DR15      -5.07 дБ   -24.54 дБ      8:15 11-Jam Suite #2 - Colorado Peach Jam
DR15      -6.31 дБ   -24.87 дБ      8:39 12-So Nan Desu
--------------------------------------------------------------------------------

Количество треков: 12
Реальные значения DR: DR14

Частота:   2822400 Гц / Частота PCM: 352800 Гц
Каналов:   2
Разрядность:   24
Битрейт:   5645 кбит/с
Кодек:   DST64
================================================================================
Any questions - support@pro-jazz.com. Есть вопросы - support@pro-jazz.com
00:20
287
Нет комментариев. Ваш будет первым!