Поиск

2008 Champian Fulton Trio - Sometimes I’m Happy (2018) {Venus VHGD-275} [DSD64]

2008 Champian Fulton Trio - Sometimes I’m Happy (2018) {Venus VHGD-275} [DSD64]
Стили:
Дата записи диска:
10 апреля - 11 апреля 2008
Дата издания диска:
17 сентября 2008
Издатель (лейбл):
Номер по каталогу:
VHGD-275
Битрейт аудио:
lossless

Треклист:

01. When Your Lover Has Gone  04:56
02. Just Squeeze Me  05:28
03. Pennies from Heaven  05:34
04. All Too Soon  04:36
05. Wrap Your Troubles in Dreams  04:34
06. It's All Right With Me  03:49
07. September in the Rain  04:43
08. He's Funny That Way  04:37
09. Sometimes I'm Happy  04:35
10. Darn That Dream  05:09
11. Whistling Away the Dark  03:54
12. Tea for Two  05:09

Доп. инфо:

Формат записи/Источник записи: [SACD-R][OF]
Наличие водяных знаков: Нет
Год издания/переиздания диска: 2008/2018
Продолжительность: 00:57:08
Наличие сканов в содержимом раздачи: Только обложка альбома

Контейнер: ISO (*.iso)
Тип рипа: image
Разрядность: 64(2,8 MHz/1 Bit)
Формат: DSD
Количество каналов: 2.0

venusrecords
Источник (релизер): jazzy pic

Лог проверки качества
foobar2000 1.6.2 / Замер динамического диапазона (DR) 1.1.1
Дата отчёта:  2021-01-15 20:32:08

--------------------------------------------------------------------------------
Анализ:   CHAMPIAN FULTON TRIO / Sometimes I'm Happy
--------------------------------------------------------------------------------

DR         Пики         RMS           Продолжительность трека
--------------------------------------------------------------------------------
DR7       -4.77 дБ   -14.06 дБ      4:57 01-When Your Lover Has Gone
DR8       -4.43 дБ   -13.67 дБ      5:29 02-Just Squeeze Me
DR8       -4.47 дБ   -14.36 дБ      5:34 03-Pennies From Heaven
DR8       -4.85 дБ   -15.04 дБ      4:36 04-All Too Soon
DR8       -4.78 дБ   -13.77 дБ      4:34 05-Wrap Your Troubles In Dreams
DR7       -4.53 дБ   -13.63 дБ      3:50 06-It's All Right With Me
DR8       -4.82 дБ   -14.84 дБ      4:43 07-September In The Rain
DR8       -4.92 дБ   -14.99 дБ      4:37 08-He's Funny That Way
DR8       -4.58 дБ   -13.94 дБ      4:35 09-Sometimes I'm Happy
DR8       -4.83 дБ   -15.32 дБ      5:10 10-Darn That Dream
DR8       -4.83 дБ   -14.79 дБ      3:54 11-Whistling Away The Dark
DR8       -4.69 дБ   -13.67 дБ      5:09 12-Tea For Two
--------------------------------------------------------------------------------

Количество треков: 12
Реальные значения DR: DR8

Частота:  2822400 Гц / Частота PCM: 352800 Гц
Каналов:  2
Разрядность:   1
Битрейт:  5645 кбит/с
Кодек:   DSD64
================================================================================
Приватный:
Нет (DHT включён)
Размер:
2.30 Гб (2,469,128,556 байт) » файлов: 5
Участники:
0 раздают, 0 качают (0 участников всего)
Внешние участники:
9 раздают, 3 качают (12 участников всего) [ Обновить ]
No seeders - write personal message to M0p94ok. Any questions - support@pro-jazz.com.
Нет сидеров - пишите в личку M0p94ok. Есть вопросы - support@pro-jazz.com
01:57
117
Нет комментариев. Ваш будет первым!