Поиск

2020 Jahari Massamba Unit - Pardon My French {Madlib Invazion} [24-44.1]

2020 Jahari Massamba Unit - Pardon My French {Madlib Invazion} [24-44.1]
Дата издания диска:
27 ноября 2020
Битрейт аудио:
lossless
Доп. инфо:

Формат записи/Источник записи: [TR24][OF]
Наличие водяных знаков: Нет
Год издания/переиздания диска: 2020
Издатель (лейбл): Madlib Invazion
Продолжительность: 00:48:02
Наличие сканов в содержимом раздачи: Только обложка альбома

Контейнер: FLAC (*.flac)
Тип рипа: tracks
Разрядность: 24/44,1
Формат: PCM
Количество каналов: 2.0

Источник (релизер): https://jaharimassambaunit.bandcamp.com/

Лог проверки качества
foobar2000 1.6.2 / Dynamic Range Meter 1.1.1
log date: 2021-01-15 19:48:00

--------------------------------------------------------------------------------
Analyzed: Jahari Massamba Unit / Pardon My French
--------------------------------------------------------------------------------

DR         Peak         RMS     Duration Track
--------------------------------------------------------------------------------
DR9       -0.20 dB   -11.66 dB      2:00 01-Je Prendrai Le Romanée-Conti (Putain De Leroy)
DR9       -0.35 dB   -12.18 dB      1:14 02-Les Jardins Esméraldins (Pour Caillard)
DR10      -0.26 dB   -12.51 dB      3:10 03-Un Bordeaux Pré-Phylloxéra (Pour Le Riche Enculé)
DR9       -0.20 dB   -10.36 dB      3:32 04-Deux Fakes Jayers  (Aussi Pour Le Riche Enculé)
DR10      -0.21 dB   -11.68 dB      4:39 05-Riesling Pour Robert
DR8       -0.22 dB   -10.25 dB      9:08 06-Du Morgon Au Moulin-À-Vent (Pour Duke)
DR5       -0.22 dB    -6.39 dB      2:35 07-Trou Du Cul  (Ode Au Sommelier Arrogant)
DR6       -0.33 dB    -7.29 dB      4:35 08-Etude Montrachet
DR12      -3.96 dB   -23.28 dB      0:33 09-Le Feu (Pour Belluard)
DR8       -0.24 dB   -10.44 dB      5:11 10-Merde (Basse-cour)
DR9       -0.34 dB   -11.36 dB      4:34 11-Inestimable Le Clos
DR10      -0.20 dB   -11.59 dB      2:05 12-La Closerie (Pour Prévost)
DR12      -0.23 dB   -13.68 dB      4:48 13-Hommage À La Vielle Garde (Pour Lafarge Et Rinaldi)
--------------------------------------------------------------------------------

Number of tracks:  13
Official DR value: DR9

Samplerate:        44100 Hz
Channels:          2
Bits per sample:   24
Bitrate:           1510 kbps
Codec:             FLAC
================================================================================
No seeders - write personal message to M0p94ok. Any questions - support@pro-jazz.com.
Нет сидеров - пишите в личку M0p94ok. Есть вопросы - support@pro-jazz.com
14:49
126
Нет комментариев. Ваш будет первым!