Вы используете незарегистрированную версию компонента "Вкладки"!

Поиск

1977 V.S.O.P. The Quintet - Tempest In The Colosseum {Sony BMG Music Entertainment} [DSD64]

1977 V.S.O.P. The Quintet - Tempest In The Colosseum {Sony BMG Music Entertainment} [DSD64]
Стили:
Издатель (лейбл):
Номер по каталогу:
SONY SICP-10076
Битрейт аудио:
lossless
Доп. инфо:

Формат записи/Источник записи: [SACD-R][OF]
Наличие водяных знаков: Нет
Год издания/переиздания диска: 1977/2007
Продолжительность: 01:09:21
Наличие сканов в содержимом раздачи: Нет

Контейнер: ISO (*.iso)
Тип рипа: image
Разрядность: 64(2,8 MHz/1 Bit)
Формат: DSD
Количество каналов: 2.0

Источник (релизер): http://www.sa-cd.net/showtitle/4824

 

Лог проверки качества
foobar2000 1.5.3 / Замер динамического диапазона (DR) 1.1.1
Дата отчёта: 2020-05-03 03:28:20

--------------------------------------------------------------------------------
Анализ: V.S.O.P.The Quintet / Tempest In The Colosseum
--------------------------------------------------------------------------------

DR Пики RMS Продолжительность трека
--------------------------------------------------------------------------------
DR13 -3.26 дБ -20.15 дБ 16:16 01-Eye Of The Hurricane
DR14 -4.78 дБ -27.86 дБ 5:06 02-Diana
DR13 -3.78 дБ -21.53 дБ 12:57 03-Eighty-One
DR14 -3.56 дБ -21.87 дБ 12:18 04-Maiden Voyage
DR14 -4.28 дБ -23.00 дБ 8:15 05-Lawra
DR14 -3.68 дБ -21.20 дБ 14:29 06-Red Clay
--------------------------------------------------------------------------------

Количество треков: 6
Реальные значения DR: DR14

Частота: 2822400 Гц / Частота PCM: 44100 Гц
Каналов: 2
Разрядность: 1
Битрейт: 5645 кбит/с
Кодек: DSD64
Any questions - support@pro-jazz.com. Есть вопросы - support@pro-jazz.com
10:33
330
Нет комментариев. Ваш будет первым!