Поиск

1954 Helen Merrill - Helen Merrill (2019) {RevOla} [24-44,1]

1954 Helen Merrill - Helen Merrill (2019) {RevOla} [24-44,1]
Стили:
Издатель (лейбл):
Битрейт аудио:
lossless
Доп. инфо:

Формат записи/Источник записи: [TR24][OF]
Издание: Remastered
Год издания/переиздания диска: 1954/2019
Издатель (лейбл): RevOla
Продолжительность: 00:32:56
Наличие сканов в содержимом раздачи: Нет

Контейнер: FLAC (*.flac)
Тип рипа: tracks
Разрядность: 24/44,1
Количество каналов: 2.0

Источник (релизер): Qobuz

Лог проверки качества
foobar2000 1.4.3 / Dynamic Range Meter 1.1.1
log date: 2020-04-30 14:13:00

--------------------------------------------------------------------------------
Analyzed: Helen Merrill / Helen Merrill
--------------------------------------------------------------------------------

DR         Peak         RMS     Duration Track
--------------------------------------------------------------------------------
DR17      -2.58 dB   -23.02 dB      5:16 01-Don't Explain
DR17      -0.98 dB   -21.11 dB      4:21 02-You'd Be So Nice To Come Home To
DR16      -2.05 dB   -23.43 dB      5:01 03-What's New
DR15      -1.42 dB   -20.12 dB      3:55 04-Falling In Love With Love
DR17      -1.34 dB   -22.27 dB      6:01 05-Yesterdays
DR17      -1.81 dB   -22.01 dB      5:13 06-Born To Be Blue
DR17      -0.95 dB   -20.49 dB      3:15 07-'S Wonderful
--------------------------------------------------------------------------------

Number of tracks:  7
Official DR value: DR17

Samplerate:        44100 Hz
Channels:          2
Bits per sample:   24
Bitrate:           1408 kbps
Codec:             FLAC
================================================================================
No seeders - write personal message to M0p94ok. Any questions - support@pro-jazz.com.
Нет сидеров - пишите в личку M0p94ok. Есть вопросы - support@pro-jazz.com
14:05
216
Нет комментариев. Ваш будет первым!