Вы используете незарегистрированную версию компонента "Вкладки"!

Поиск

2019 Duduka Da Fonseca & Helio Alves ft. Maucha Adnet - Samba Jazz & Tom Jobim {Sunnyside} [24-88,2]

2019 Duduka Da Fonseca & Helio Alves ft. Maucha Adnet - Samba Jazz & Tom Jobim {Sunnyside} [24-88,2]
Издатель (лейбл):
Битрейт аудио:
lossless
Доп. инфо:

Формат записи/Источник записи: [TR24][OF]
Год издания/переиздания диска: 2019
Продолжительность: 01:05:15
Наличие сканов в содержимом раздачи: Нет

Контейнер: FLAC (*.flac)
Тип рипа: tracks
Разрядность: 24/88,2
Количество каналов: 2.0

Источник (релизер): Qobuz

Лог проверки качества
foobar2000 1.4.3 / Dynamic Range Meter 1.1.1
log date: 2020-04-30 10:25:44

--------------------------------------------------------------------------------
Analyzed: Duduka Da Fonseca & Helio Alves / Samba Jazz & Tom Jobim
--------------------------------------------------------------------------------

DR         Peak         RMS     Duration Track
--------------------------------------------------------------------------------
DR11      -0.50 dB   -13.40 dB      6:01 01-Gemini Man
DR12      -0.50 dB   -14.29 dB      6:28 02-Alana
DR11      -0.50 dB   -13.69 dB      7:02 03-Untitled
DR11      -0.50 dB   -13.70 dB      3:58 04-Pato Preto
DR12      -2.35 dB   -17.48 dB      6:50 05-Dindi
DR11      -1.69 dB   -15.67 dB      2:50 06-A Correnteza
DR12      -0.50 dB   -15.09 dB      6:04 07-Pedra Bonita
DR12      -0.50 dB   -16.03 dB      6:00 08-Helium
DR12      -2.83 dB   -17.24 dB      3:56 09-Voce Vai Ver
DR11      -0.50 dB   -13.26 dB      4:55 10-Poly Pony
DR11      -0.50 dB   -12.77 dB      4:50 11-A Vontade Mesmo
DR12      -2.58 dB   -17.69 dB      6:27 12-I Love You Porgy
--------------------------------------------------------------------------------

Number of tracks:  12
Official DR value: DR11

Samplerate:        88200 Hz
Channels:          2
Bits per sample:   24
Bitrate:           2335 kbps
Codec:             FLAC
================================================================================
Any questions - support@pro-jazz.com. Есть вопросы - support@pro-jazz.com
08:34
351
Нет комментариев. Ваш будет первым!