Вы используете незарегистрированную версию компонента "Вкладки"!

Поиск

1976 Keith Jarrett - Hymns - Spheres (2015) {ECM} [24-96]

1976 Keith Jarrett - Hymns - Spheres (2015) {ECM} [24-96]
Место записи:
Benedictine Abbey, Ottobeuren, Germany
Дата издания диска:
1 ноября 1976
Издатель (лейбл):
Носитель:
WEB
Формат:
PCM
Тип рипа:
tracks+.cue
Контейнер:
APE (*.ape)
Количество каналов:
2.0
Разрядность/ЧД:
24/96
Битрейт аудио:
lossless
Время звучания:
01:33:35
Наличие сканов:
web
Релизёр (источник):
M0p94ok
Лог проверки качества
foobar2000 1.6.2 / Dynamic Range Meter 1.1.1
log date: 2021-01-26 23:23:45

--------------------------------------------------------------------------------
Analyzed: Keith Jarrett / Hymns / Spheres
--------------------------------------------------------------------------------

DR         Peak         RMS     Duration Track
--------------------------------------------------------------------------------
DR10      -4.25 dB   -18.78 dB      4:12 01-Hymn Of Remembrance
DR10      -5.36 dB   -19.52 dB      7:42 02-Spheres, 1st Movement
DR10      -4.17 dB   -17.87 dB     13:05 03-Spheres, 2nd Movement
DR9       -4.38 dB   -16.89 dB     10:16 04-Spheres, 3rd Movement
DR10      -7.17 dB   -20.97 dB     12:24 05-Spheres, 4th Movement
DR10      -5.11 dB   -18.50 dB      4:40 06-Spheres, 5th Movement
DR11      -5.56 dB   -21.24 dB     11:26 07-Spheres, 6th Movement
DR10      -5.55 dB   -20.32 dB      8:20 08-Spheres, 7th Movement
DR11      -8.16 dB   -22.23 dB      5:20 09-Spheres, 8th Movement
DR11      -4.36 dB   -20.03 dB     12:05 10-Spheres, 9th Movement
DR10      -3.96 dB   -18.41 dB      4:10 11-Hymn Of Release
--------------------------------------------------------------------------------

Number of tracks:  11
Official DR value: DR10

Samplerate:        96000 Hz
Channels:          2
Bits per sample:   24
Bitrate:           2531 kbps
Codec:             FLAC
================================================================================
Any questions - support@pro-jazz.com. Есть вопросы - support@pro-jazz.com
01:19
179
Нет комментариев. Ваш будет первым!