Поиск

2020 Chris Potter - There is a Tide {Edition} [24-96]

2020 Chris Potter - There is a Tide {Edition} [24-96]
Стили:
Дата издания диска:
4 декабря 2020
Битрейт аудио:
lossless
Лог проверки качества
foobar2000 1.4.8 / Dynamic Range Meter 1.1.1
log date: 2020-12-04 16:30:02

--------------------------------------------------------------------------------
Analyzed: Chris Potter / There is a Tide
--------------------------------------------------------------------------------

DR         Peak         RMS     Duration Track
--------------------------------------------------------------------------------
DR9       -1.00 dB   -12.75 dB      5:29 01-I Had a Dream
DR9       -1.00 dB   -12.67 dB      5:48 02-Like a Memory
DR9       -1.00 dB   -12.57 dB      5:46 03-Mother of Waters
DR9       -1.00 dB   -11.69 dB      5:40 04-Rising Over You
DR8       -1.00 dB   -11.28 dB      5:45 05-Oh So Many Stars
DR9       -1.00 dB   -11.85 dB      3:53 06-Drop Your Anchor Down
DR9       -1.00 dB   -11.87 dB      5:40 07-Beneath the Waves
DR9       -1.00 dB   -11.60 dB      3:58 08-Rest Your Head
DR9       -1.00 dB   -12.67 dB      5:16 09-As the Moon Ascends
DR10      -1.00 dB   -13.60 dB      6:03 10-New Life (In the Wake of Devastation)
--------------------------------------------------------------------------------

Number of tracks:  10
Official DR value: DR9
Samplerate:        96000 Hz
Channels:          2
Bits per sample:   24
Bitrate:           2748 kbps
Codec:             FLAC
================================================================================
No seeders - write personal message to M0p94ok. Any questions - support@pro-jazz.com.
Нет сидеров - пишите в личку M0p94ok. Есть вопросы - support@pro-jazz.com
20:54
154
Нет комментариев. Ваш будет первым!