Поиск

2018 Joey Baron, Robyn Schulkowsky - Now You Hear Me {Intakt} [24-96]

2018 Joey Baron, Robyn Schulkowsky - Now You Hear Me {Intakt} [24-96]
Дата издания диска:
15 июня 2018
Издатель (лейбл):
Номер по каталогу:
307
Носитель:
WEB
Формат:
PCM
Тип рипа:
tracks+.cue
Контейнер:
APE (*.ape)
Количество каналов:
2.0
Разрядность/ЧД:
24/96
Битрейт аудио:
lossless
Время звучания:
01:08:28
Наличие сканов:
web
Релизёр (источник):
M0p94ok
Доп. инфо:

Робин Шулковски, верховный жрец перкуссии Новой музыки, и Джои Бэрон, один из самых ярких и креативных барабанщиков в центре Нью-Йорка, происходят из самых разных авангардных традиций. Тем не менее, объединяя свои таланты во время игры, категории размываются - или, скорее, растворяются. То, что они приносят с собой, - это своего рода океанический опыт.

Джои Барон чувствует себя как дома в современном джазе. Он один из любимых барабанщиков Джона Зорна, и его часто можно услышать вместе с Биллом Фризеллом; он играл с Диззи Гиллеспи, Стэном Гетцем, Джимом Холлом и Кармен МакРэй; а также путешествовал по Атлантике в своей недавней работе с Якобом Бро, а также записал компакт-диск в дуэте с Ирен Швейцер на Intakt Records. Робин Шулковски переехала из США в Европу, где она сотрудничала и воплощала в жизнь произведения великих музыкантов Новой музыки. Вряд ли в этом списке отсутствовал высокопоставленный композитор-авангардист: она работала с Карлхайнцем Штокхаузеном, Маурисио Кагелем, Джоном Кейджем, Мортоном Фельдманом, Яннисом Ксенакисом, Лучано Берио, Кристианом Вольфом. С самого начала она была здоровым новатором.

Now You Hear Me. Призывающий, заставляющий ощущать присутствие состояния, присваивание и отказ от повседневной реальности и ритуала. Сейчас.

Лог проверки качества
foobar2000 1.6.2 / Dynamic Range Meter 1.1.1
log date: 2021-01-26 19:27:53

--------------------------------------------------------------------------------
Analyzed: Joey Baron / Now You Hear Me
--------------------------------------------------------------------------------

DR         Peak         RMS     Duration Track
--------------------------------------------------------------------------------
DR16      -0.31 dB   -21.65 dB     12:21 01-Castings
DR16      -0.34 dB   -20.62 dB     32:42 02-Passage
DR16      -1.83 dB   -24.94 dB     17:28 03-The Gaze
DR16      -2.28 dB   -23.34 dB      6:00 04-Just Listen
--------------------------------------------------------------------------------

Number of tracks:  4
Official DR value: DR16

Samplerate:        96000 Hz
Channels:          2
Bits per sample:   24
Bitrate:           2744 kbps
Codec:             FLAC
================================================================================
No seeders - write personal message to M0p94ok. Any questions - support@pro-jazz.com.
Нет сидеров - пишите в личку M0p94ok. Есть вопросы - support@pro-jazz.com
20:37
167
Нет комментариев. Ваш будет первым!