Поиск

2015 Joe Locke - Love Is A Pendulum {Motema} [24-44,1]

2015 Joe Locke - Love Is A Pendulum {Motema} [24-44,1]
Стили:
Битрейт аудио:
lossless
Доп. инфо:

Формат записи/Источник записи: [TR24][OF]
Год издания/переиздания диска: 2015
Издатель (лейбл): Motema
Продолжительность: 01:06:04
Наличие сканов в содержимом раздачи: Нет

Контейнер: FLAC (*.flac)
Тип рипа: tracks
Разрядность: 24/44,1
Количество каналов: 2.0

Источник (релизер): Qobuz

Лог проверки качества
foobar2000 1.4.3 / Dynamic Range Meter 1.1.1
log date: 2020-12-18 22:57:55

--------------------------------------------------------------------------------
Analyzed: Joe Locke / Love is a Pendulum
--------------------------------------------------------------------------------

DR         Peak         RMS     Duration Track
--------------------------------------------------------------------------------
DR11      -1.60 dB   -17.70 dB      2:09 01-Variation On Wisdom
DR9       -0.50 dB   -13.00 dB     11:37 02-Love is the Tide
DR13      -0.57 dB   -17.03 dB      7:54 03-Love is a Planchette
DR11      -0.50 dB   -15.68 dB      8:44 04-Love is a Pendulum
DR12      -1.60 dB   -17.17 dB      4:52 05-Love is Letting Go
DR10      -0.50 dB   -13.45 dB     10:38 06-Love is Perpetual Motion
DR9       -0.78 dB   -13.37 dB      5:45 07-For Jesse Mountain
DR9       -0.50 dB   -12.56 dB      6:43 08-Last Ditch Wisdom
DR13      -0.80 dB   -17.06 dB      7:45 09-Embrace
--------------------------------------------------------------------------------

Number of tracks:  9
Official DR value: DR11

Samplerate:        44100 Hz
Channels:          2
Bits per sample:   24
Bitrate:           1442 kbps
Codec:             FLAC
================================================================================
No seeders - write personal message to M0p94ok. Any questions - support@pro-jazz.com.
Нет сидеров - пишите в личку M0p94ok. Есть вопросы - support@pro-jazz.com
18:35
165
Нет комментариев. Ваш будет первым!