Поиск

1971 Idris Muhammad - Black Rhythm Revolution! (2020) {Craft} [24-192]

1971 Idris Muhammad - Black Rhythm Revolution! (2020) {Craft} [24-192]
Стили:
Издатель (лейбл):
Битрейт аудио:
lossless
Доп. инфо:

Формат записи/Источник записи: [TR24][OF]
Издание: Remastered
Год издания/переиздания диска: 1971/2020
Издатель (лейбл): Craft Recordings
Продолжительность: 00:35:30
Наличие сканов в содержимом раздачи: Нет

Контейнер: FLAC (*.flac)
Тип рипа: tracks
Разрядность: 24/192
Количество каналов: 2.0

Источник (релизер): HIGHRESAUDIO

Лог проверки качества
foobar2000 1.4.3 / Dynamic Range Meter 1.1.1
log date: 2020-11-27 21:44:11

--------------------------------------------------------------------------------
Analyzed: Idris Muhammad / Black Rhythm Revolution!
--------------------------------------------------------------------------------

DR         Peak         RMS     Duration Track
--------------------------------------------------------------------------------
DR12      -2.75 dB   -17.36 dB      5:26 01-Express Yourself
DR15      -0.20 dB   -17.73 dB      4:41 02-Soulful Drums
DR13      -1.01 dB   -16.54 dB      5:30 03-Super Bad
DR13      -0.20 dB   -16.13 dB     11:10 04-Wander
DR13      -2.18 dB   -18.94 dB      8:54 05-By The Red Sea
--------------------------------------------------------------------------------

Number of tracks:  5
Official DR value: DR13

Samplerate:        192000 Hz
Channels:          2
Bits per sample:   24
Bitrate:           5726 kbps
Codec:             FLAC
================================================================================
No seeders - write personal message to M0p94ok. Any questions - support@pro-jazz.com.
Нет сидеров - пишите в личку M0p94ok. Есть вопросы - support@pro-jazz.com
02:04
165
Нет комментариев. Ваш будет первым!