Поиск

2019 Wynton Marsalis - Bolden (Original Soundtrack) {Blue Engine} [24-96]

2019 Wynton Marsalis - Bolden (Original Soundtrack) {Blue Engine} [24-96]
Дата издания диска:
19 апреля 2019
Носитель:
WEB
Формат:
PCM
Тип рипа:
tracks+.cue
Контейнер:
APE (*.ape)
Количество каналов:
2.0
Разрядность/ЧД:
24/96
Битрейт аудио:
lossless
Время звучания:
01:10:09
Наличие сканов:
web
Наличие водяных знаков:
нет
Страна-производитель диска (релиза):
USA
Релизёр (источник):
M0p94ok

Треклист:

01. Come on Children 3:25
02. Make Me a Pallet on the Floor 1:57
03. Gone My Way 2:36
04. Creole Belles 1:48
05. Bolden Jump 2:25
06. Timelessness – (Short Version) 2:23
07. You Rascal You 2:49
08. Russian Lullaby 2:03
09. Stardust 3:37
10. Timelessness 3:49
11. Phantasmagoric Bordello Ballet 3:39
12. Shake it High, Shake It Low 1:59
13. Red Hot Mammas 2:14
14. Whoa You Heifer 2:09
15. Don’t Go Away Nobody 2:38
16. All the Whores Go Crazy (About the Way I Ride) 2:25
17. Basin Street Blues 3:30
18. Dinah 3:08
19. Muskrat Ramble 2:31
20. Black and Blue 2:55
21. Tiger Rag 3:17
22. Making Runs 1:59
23. Whip It 2:01
24. Funky Butt (I Thought I Heard Buddy Bolden Say) 5:06
25. Didn’t He Ramble 1:53
26. Buddy’s Horn 2:08

Лог проверки качества
foobar2000 1.6.2 / Dynamic Range Meter 1.1.1
log date: 2021-01-25 23:39:06

--------------------------------------------------------------------------------
Analyzed: Wynton Marsalis / Bolden (Original Soundtrack)
--------------------------------------------------------------------------------

DR         Peak         RMS     Duration Track
--------------------------------------------------------------------------------
DR9       -0.32 dB   -12.24 dB      3:25 01-Come on Children
DR13      -0.32 dB   -17.03 dB      1:57 02-Make Me a Pallet on the Floor
DR10      -0.32 dB   -11.50 dB      2:36 03-Gone My Way
DR11      -0.32 dB   -13.49 dB      1:47 04-Creole Belles
DR11      -0.32 dB   -12.48 dB      2:25 05-Bolden Jump
DR10      -0.32 dB   -12.85 dB      2:23 06-Timelessness
DR8       -0.32 dB   -10.58 dB      2:49 07-You Rascal You
DR10      -0.32 dB   -12.64 dB      2:03 08-Russian Lullaby
DR11      -0.32 dB   -12.80 dB      3:37 09-Stardust
DR12      -0.32 dB   -14.11 dB      3:49 10-Timelessness
DR9       -0.32 dB   -13.04 dB      3:39 11-Phantasmagoric Bordello Ballet
DR10      -0.32 dB   -11.41 dB      1:59 12-Shake It High, Shake It Low
DR10      -0.32 dB   -12.74 dB      2:14 13-Red Hot Mammas
DR10      -0.32 dB   -12.35 dB      2:09 14-Whoa You Heifer
DR10      -0.32 dB   -12.29 dB      2:38 15-Don't Go Away Nobody
DR10      -0.32 dB   -12.31 dB      2:25 16-All the Whores Go Crazy (About the Way I Ride)
DR11      -0.32 dB   -13.98 dB      3:30 17-Basin Street Blues
DR10      -0.32 dB   -12.43 dB      3:08 18-Dinah
DR9       -0.32 dB   -13.07 dB      2:31 19-Muskrat Ramble
DR12      -0.32 dB   -14.15 dB      2:55 20-Black and Blue
DR9       -0.32 dB   -11.75 dB      3:17 21-Tiger Rag
DR11      -0.32 dB   -13.38 dB      1:59 22-Making Runs
DR10      -0.32 dB   -12.62 dB      2:01 23-Whip It
DR12      -0.32 dB   -14.61 dB      5:06 24-Funky Butt (I Thought I Heard Buddy Bolden Say)
DR8       -0.32 dB   -10.37 dB      1:53 25-Didn't He Ramble
DR14      -0.33 dB   -18.43 dB      2:08 26-Buddy's Horn
--------------------------------------------------------------------------------

Number of tracks:  26
Official DR value: DR10

Samplerate:        96000 Hz
Channels:          2
Bits per sample:   24
Bitrate:           2548 kbps
Codec:             FLAC
================================================================================
Приватный:
Нет (DHT включён)
Размер:
1.36 Гб (1,465,385,190 байт) » файлов: 28
Участники:
1 раздают, 0 качают (1 участников всего)
Внешние участники:
--- [ Обновить ]
No seeders - write personal message to M0p94ok. Any questions - support@pro-jazz.com.
Нет сидеров - пишите в личку M0p94ok. Есть вопросы - support@pro-jazz.com
00:45
125
Нет комментариев. Ваш будет первым!